• 0
  • 0
  • done
Anonymous Download
  • VA 100 пудовый хит 6 - 2011(lossless)
  • 487 MB
  • 40years
  • 100 2011 lossless
  • Отечественная поп-музыка
Warning! Use a VPN When Downloading Torrents!
Your IP Address is ,
Your Internet Provider can see when you download torrents! Hide your IP ADDRESS with a VPN
We strongly recommend Trust.Zone VPN to hide your torrenting. It's FREE!
DOWNLOAD VPN

Description

Various Artists - 100 пудовый хит 6

image

Жанр :

Pop

Страна-производитель диска : image

Год издания диска :

2011

Издатель (лейбл) :

Квадро диск

/

Golden Music

Номер по каталогу :

296/11

Страна : image /image

Аудиокодек :

FLAC (*.flac)

Тип рипа :

image+.cue

Битрейт аудио :

lossless

Продолжительность :

65:42

Источник (релизер) :

мой диск

Наличие сканов в содержимом раздачи :

да

image

  1. С. Михайлов - Только ты
    1. Елена Ваенга - Мосты
    2. Артур - Слезы любви
    3. Таисия Повалий - Только меня
    4. Гр. 'Республика' - Клевый
    5. София Ротару - Не уходи
    6. Гр. 'Сценокардия' - Подарки
    7. Ранетки - Ревность
    8. Гр. Русский размер - Пластинки
    9. ОксанаПочепа - Она
    10. Витас - Тополь
    11. Анжелика Варум - Рай
    12. Александр Серов - Сказочный Версаль
    13. Гр. 'Фристайл' - Белая береза (2009)
    14. Т. Буланова и С.Любавин - Цветок
    15. Светлана Разина - Почему
    16. Гр. 'Мираж' (Н. Гулькина) - Я выбираю сама
    17. Александр Шевченко - Все будет хорошо

Лог создания рипа

`Exact Audio Copy V1.0 beta 1 from 15. November 2010

Отчёт EAC об извлечении, выполненном 21. августа 2011, 15:20

Various / 100 пудовый хит 6

Дисковод: HL-DT-STDVD-RAM GH22NP21 Adapter: 0 ID: 0

Режим чтения : Достоверность
Использование точного потока : Да
Отключение кэша аудио : Да
Использование указателей C2 : Нет

Коррекция смещения при чтении : 102
Способность читать области Lead-in и Lead-out : Нет
Заполнение пропущенных сэмплов тишиной : Да
Удаление блоков с тишиной в начале и конце : Нет
При вычислениях CRC использовались нулевые сэмплы : Да
Интерфейс : Встроенный Win32-интерфейс для Win NT/2000

Выходной формат : Пользовательский кодировщик
Выбранный битрейт : 1024 kBit/s
Качество : Высокий
Добавление ID3-тэга : Нет
Утилита сжатия : C:Program FilesExact Audio CopyFLACFLAC.EXE
Дополнительные параметры : -8 -V -T "ARTIST=%a" -T "TITLE=%t" -T "ALBUM=%g" -T "DATE=%y" -T "TRACKNUMBER=%n" -T "GENRE=%m" -T "COMMENT=%e" %j--picture="%i"%j %s -o %d

TOC извлечённого CD

Трек | Старт | Длительность | Начальный сектор | Конечный сектор


1 | 0:00.00 | 3:38.19 | 0 | 16368
2 | 3:38.19 | 3:47.25 | 16369 | 33418
3 | 7:25.44 | 3:38.02 | 33419 | 49770
4 | 11:03.46 | 3:09.35 | 49771 | 63980
5 | 14:13.06 | 3:04.16 | 63981 | 77796
6 | 17:17.22 | 3:05.44 | 77797 | 91715
7 | 20:22.66 | 3:12.09 | 91716 | 106124
8 | 23:35.00 | 3:29.11 | 106125 | 121810
9 | 27:04.11 | 4:35.23 | 121811 | 142458
10 | 31:39.34 | 3:12.34 | 142459 | 156892
11 | 34:51.68 | 3:28.09 | 156893 | 172501
12 | 38:20.02 | 4:18.69 | 172502 | 191920
13 | 42:38.71 | 3:38.24 | 191921 | 208294
14 | 46:17.20 | 4:44.43 | 208295 | 229637
15 | 51:01.63 | 3:52.66 | 229638 | 247103
16 | 54:54.54 | 4:06.29 | 247104 | 265582
17 | 59:01.08 | 3:24.35 | 265583 | 280917
18 | 62:25.43 | 3:17.18 | 280918 | 295710

Характеристики диапазона извлечения и сообщения об ошибках

Выбранный диапазон

Имя файла D:Раздачи на torrents.ruVA 100 пудовый хит 6 - 2011(lossless)Various - 100 пудовый хит 6.wav

Пиковый уровень 97.9 %
0.1 X
Качество диапазона 100.0 %
CRC теста 879A43D1
CRC копии 879A43D1
Копирование... OK

Ошибок не произошло

AccurateRip: сводка

Трек 1 нет в базе данных
Трек 2 нет в базе данных
Трек 3 нет в базе данных
Трек 4 нет в базе данных
Трек 5 нет в базе данных
Трек 6 нет в базе данных
Трек 7 нет в базе данных
Трек 8 нет в базе данных
Трек 9 нет в базе данных
Трек 10 нет в базе данных
Трек 11 нет в базе данных
Трек 12 нет в базе данных
Трек 13 нет в базе данных
Трек 14 нет в базе данных
Трек 15 нет в базе данных
Трек 16 нет в базе данных
Трек 17 нет в базе данных
Трек 18 нет в базе данных

Ни одного трека нет в базе AccurateRip

Конец отчёта `

Доп. информация :
100 пудовый хит 7 image


More at ibit.to
And ibit.uno
And ibit.ws

Comments

8 years ago

DIMOONNN1 писал(а): Спасиб)) Можете пж раздать побыстрей Пожалуйста. Я постараюсь раздать побыстрей , но кроме данной раздачи есть еще несколько важных

Files

Covers005.jpg 3.3 MB
Covers001.jpg 4.4 MB
Covers004.jpg 4.0 MB
Various - 100 пудовый хит 6.flac 465 MB
Covers002.jpg 7.2 MB
Various - 100 пудовый хит 6.cue 1.9 kB
Various - 100 пудовый хит 6.log 7.1 kB
Tracklist.txt 1.4 kB
Coversmatrix.jpg 281 kB
Covers003.jpg 2.6 MB

Stream

Downloading Seeding VA 100 пудовый хит 6 - 2011(lossless) from to 0 peers.
of
0 b/s / ↗0 b/s