• -
  • -
  • done
Download
  • Une robe d'ete
  • 3.7 GB
  • kirillivanov
  • Une robe ete
  • Главная

Description

Летнее платье / Une robe d'ete / A Summer Dress

image

Страна

: Франция

Жанр

: Мелодрама

Год выпуска

: 1996

Продолжительность

: 00:15:55

Перевод

: Любительский (одноголосый закадровый, Kirill Ivanov)

Субтитры

: русские, французские, английские (полные)

Оригинальная аудиодорожка

: французский

Режиссер

: Франсуа Озон / Francois Ozon

В ролях

: Фредерик Манжено, Лусия Санчес, Себастьян Шарль

Описание

: Одна из первых работ Франсуа Озона. Лето во Франции. Себастьен любит певцу Шейлу. Люсия любит мальчиков. А всё что хочет Люк, так это загорать и купаться...

image image image

Тип релиза

: BDRemux 1080p

Контейнер

: MKV

Видео

: AVC / 29,8 Mbps / 1920x1080 / 23,976 fps / 8 bits / SDR

Аудио 1

: (Russian) DTS-HD MA, 2.0 ch, 16 bits, 48 kHz, 1696 kbps (core: DTS, 2.0 ch, 48kHz, 1509 kbps) | VO (Kirill Ivanov)

Аудио 2

: (French) DTS-HD MA, 2.0 ch, 16 bits, 48 kHz, 1558 kbps (core: DTS, 2.0 ch, 48kHz, 1509 kbps) | Original

Формат субтитров

: softsub (SRT)

MediaInfo

`
Общее
Полное имя : Une robe d'ete[A Summer Dress]1996.1080p.BDRemux.K_I.mkv
Формат : Matroska
Версия формата : Version 4
Размер файла : 3,67 Гбайт
Продолжительность : 15 м. 55 с.
Режим общего битрейта : Переменный
Общий поток : 33,0 Мбит/сек
Дата кодирования : UTC 2022-06-11 14:26:43
Программа кодирования : mkvmerge v68.0.0 ('The Curtain') 64-bit
Библиотека кодирования : libebml v1.4.2 + libmatroska v1.6.4

Видео
Идентификатор : 1
Формат : AVC
Формат/Информация : Advanced Video Codec
Профиль формата : [email protected]
Настройки формата : CABAC / 3 Ref Frames
Параметр CABAC формата : Да
Параметр RefFrames формата : 3 кадра
Параметр GOP формата : M=3, N=12
Идентификатор кодека : VMPEG4/ISO/AVC
Продолжительность : 15 м. 55 с.
Вид битрейта : Переменный
Битрейт : 29,8 Мбит/сек
Максимальный битрейт : 35,0 Мбит/сек
Ширина : 1 920 пикселей
Высота : 1 080 пикселей
Соотношение сторон : 16:9
Режим частоты кадров : Постоянный
Частота кадров : 23,976 (24000/1001) кадра/сек
Стандарт вещания : NTSC
Цветовое пространство : YUV
Субдискретизация насыщенности : 4:2:0
Битовая глубина : 8 бит
Тип развёртки : Прогрессивная
Бит/(Пиксели*Кадры) : 0.599
Размер потока : 3,31 Гбайт (90%)
Заголовок : Une robe d'ete[A Summer Dress]1996.1080p.BDRemux.K
I.mkv
Default : Да
Forced : Нет
Цветовой диапазон : Limited
Основные цвета : BT.709
Характеристики трансфера : BT.709
Коэффициенты матрицы : BT.709

Аудио #1
Идентификатор : 2
Формат : DTS XLL
Формат/Информация : Digital Theater Systems
Коммерческое название : DTS-HD Master Audio
Идентификатор кодека : A_DTS
Продолжительность : 15 м. 55 с.
Вид битрейта : Переменный
Битрейт : 1 696 Кбит/сек
Каналы : 2 канала
Частота : 48,0 КГц
Частота кадров : 93,750 кадра/сек (512 SPF)
Битовая глубина : 16 бит
Метод сжатия : Без потерь
Размер потока : 193 Мбайт (5%)
Заголовок : VO, Kirill Ivanov
Язык : Russian
Default : Да
Forced : Нет

Аудио #2
Идентификатор : 3
Формат : DTS XLL
Формат/Информация : Digital Theater Systems
Коммерческое название : DTS-HD Master Audio
Идентификатор кодека : A_DTS
Продолжительность : 15 м. 55 с.
Вид битрейта : Переменный
Битрейт : 1 558 Кбит/сек
Каналы : 2 канала
Channel layout : L R
Частота : 48,0 КГц
Частота кадров : 93,750 кадра/сек (512 SPF)
Битовая глубина : 16 бит
Метод сжатия : Без потерь
Размер потока : 177 Мбайт (5%)
Заголовок : Original
Язык : French
Default : Нет
Forced : Нет

Текст #1
Идентификатор : 4
Формат : UTF-8
Идентификатор кодека : S_TEXT/UTF8
Идентификатор кодека/Информация : UTF-8 Plain Text
Продолжительность : 14 м. 17 с.
Битрейт : 39 бит/сек
Count of elements : 108
Размер потока : 4,12 Кбайт (0%)
Заголовок : Full
Язык : Russian
Default : Нет
Forced : Нет

Текст #2
Идентификатор : 5
Формат : UTF-8
Идентификатор кодека : S_TEXT/UTF8
Идентификатор кодека/Информация : UTF-8 Plain Text
Продолжительность : 13 м. 59 с.
Битрейт : 25 бит/сек
Count of elements : 99
Размер потока : 2,61 Кбайт (0%)
Заголовок : Full
Язык : English
Default : Нет
Forced : Нет

Текст #3
Идентификатор : 6
Формат : UTF-8
Идентификатор кодека : S_TEXT/UTF8
Идентификатор кодека/Информация : UTF-8 Plain Text
Продолжительность : 13 м. 59 с.
Битрейт : 26 бит/сек
Count of elements : 107
Размер потока : 2,76 Кбайт (0%)
Заголовок : Full
Язык : French
Default : Нет
Forced : Нет
`

Скриншот с названием

image

Скриншоты

image image
image image
image image


More at ibit.to
And ibit.uno
And ibit.am
And ibit.ws

Comments

3 weeks ago

Апскейл, что ли?

3 weeks ago

Kyoto kid писал(а): 83247113Апскейл, что ли? Нет, шёл с BD диском "Été 85"Screenshot comparison скрытый текст BD DVD BD DVD

3 weeks ago

KirillIvanovСложно судить. У вас скрины с DVD в Full HD размере. Как это может быть?

3 weeks ago

Kyoto kid писал(а): 83248982KirillIvanov Сложно судить. У вас скрины с DVD в Full HD размере. Как это может быть? Я картинку с DVD обрезал от черных полос и растянул до размера блюра, чтобы было нагляднее. DVD анаморф 720х576 это 1024х576=16:9 -> 1,77:1. Пленка 35 мм -> 1,85:1. На разных релизах будет разная вписка в кадр, обрезка, т.к. оригинальная пленка с аспектом 1,85 один к одному в 1,77 (16:9) не впишется. скрытый текст Для общего понимания качества видео этого вполне достаточно. И лучшего пока не предвидется.

2 weeks ago

KirillIvanov писал(а): 83249213Я картинку с DVD обрезал от черных полос и растянул до размера блюра, чтобы было нагляднее. А, понятно. Спасибо за разъяснения, и за раздачу.

Files

Stream

Downloading Seeding Une robe d'ete from to 0 peers.
of
0 b/s / ↗0 b/s