• 1
  • 0
Sponsored Downloadondemand_video
  • Triple.Frontier.2019.720p.NF.WEB-DL.x265.HEVCBay.com.mkv
  • 410 MB
  • g3m696
  • Triple Frontier 2019 720p WEB x265 HEVCBay com mkv
  • English
  • HEVC/x265
62%

Triple Frontier (2019)

  • Thriller Crime Action Adventure Drama
  • Struggling to make ends meet, former special ops soldiers reunite for a high-stakes heist: stealing $75 million from a South American drug lord.

    expand_more
    English

    Description

    hevcbay.com

    `General

    Unique ID                                : 179271184959848615236081084383774520439 (0x86DE5FD3F5A2B316E57AC53BCE463477)

    Complete name                            : Triple.Frontier.2019.720p.NF.WEB-DL.x265.HEVCBay.com.mkv

    Format                                   : Matroska

    Format version                           : Version 4

    File size                                : 410 MiB

    Duration                                 : 2 h 5 min

    Overall bit rate                         : 456 kb/s

    Movie name                               : Triple.Frontier.2019.720p.NF.WEB-DL.x265.HEVCBay.com.mkv

    Encoded date                             : UTC 2019-03-17 02:07:12

    Writing application                      : hevcbay

    Writing library                          : hevcbay.com / Lavf58.20.100

    Comment                                  : Encoded by hevcbay.com

    ENCODED-BY                               : hevcbay.com

    Video

    ID                                       : 1

    Format                                   : HEVC

    Format/Info                              : High Efficiency Video Coding

    Format profile                           : [email protected]@Main

    Codec ID                                 : V_MPEGH/ISO/HEVC

    Duration                                 : 2 h 5 min

    Bit rate                                 : 396 kb/s

    Width                                    : 1 280 pixels

    Height                                   : 588 pixels

    Display aspect ratio                     : 2.2:1

    Original display aspect ratio            : 2.2:1

    Frame rate mode                          : Constant

    Frame rate                               : 24.000 FPS

    Color space                              : YUV

    Chroma subsampling                       : 4:2:0

    Bit depth                                : 8 bits

    Bits/(Pixel*Frame)                       : 0.022

    Stream size                              : 356 MiB (87%)

    Writing library                          : Lavc58.35.100 libx265

    Default                                  : Yes

    Forced                                   : No

    Color range                              : Limited

    Audio

    ID                                       : 2

    Format                                   : AAC LC SBR PS

    Format/Info                              : Advanced Audio Codec Low Complexity with Spectral Band Replication and Parametric Stereo

    Commercial name                          : HE-AACv2

    Format settings                          : NBC

    Codec ID                                 : A_AAC-29

    Duration                                 : 2 h 5 min

    Bit rate                                 : 55.0 kb/s

    Channel(s)                               : 2 channels

    Channel layout                           : C

    Sampling rate                            : 48.0 kHz

    Frame rate                               : 23.438 FPS (2048 SPF)

    Compression mode                         : Lossy

    Delay relative to video                  : -148 ms

    Stream size                              : 49.5 MiB (12%)

    Title                                    : English

    Writing library                          : Lavc58.35.100 libfdk_aac

    Language                                 : English

    Default                                  : Yes

    Forced                                   : No

    Text #1

    ID                                       : 3

    Format                                   : UTF-8

    Codec ID                                 : S_TEXT/UTF8

    Codec ID/Info                            : UTF-8 Plain Text

    Duration                                 : 1 h 47 min

    Bit rate                                 : 5 b/s

    Count of elements                        : 168

    Stream size                              : 4.32 KiB (0%)

    Title                                    : Forced

    Language                                 : English

    Default                                  : Yes

    Forced                                   : Yes

    Text #2

    ID                                       : 4

    Format                                   : UTF-8

    Codec ID                                 : S_TEXT/UTF8

    Codec ID/Info                            : UTF-8 Plain Text

    Duration                                 : 1 h 56 min

    Bit rate                                 : 54 b/s

    Count of elements                        : 1464

    Stream size                              : 46.6 KiB (0%)

    Language                                 : English

    Default                                  : No

    Forced                                   : No

    Text #3

    ID                                       : 5

    Format                                   : UTF-8

    Codec ID                                 : S_TEXT/UTF8

    Codec ID/Info                            : UTF-8 Plain Text

    Duration                                 : 1 h 57 min

    Bit rate                                 : 66 b/s

    Count of elements                        : 1725

    Stream size                              : 57.2 KiB (0%)

    Title                                    : SDH

    Language                                 : English

    Default                                  : No

    Forced                                   : No

    Text #4

    ID                                       : 6

    Format                                   : UTF-8

    Codec ID                                 : S_TEXT/UTF8

    Codec ID/Info                            : UTF-8 Plain Text

    Duration                                 : 1 h 57 min

    Bit rate                                 : 91 b/s

    Count of elements                        : 1440

    Stream size                              : 78.4 KiB (0%)

    Language                                 : Arabic

    Default                                  : No

    Forced                                   : No

    Text #5

    ID                                       : 7

    Format                                   : UTF-8

    Codec ID                                 : S_TEXT/UTF8

    Codec ID/Info                            : UTF-8 Plain Text

    Duration                                 : 1 h 57 min

    Bit rate                                 : 40 b/s

    Count of elements                        : 1405

    Stream size                              : 34.5 KiB (0%)

    Language                                 : Danish

    Default                                  : No

    Forced                                   : No

    Text #6

    ID                                       : 8

    Format                                   : UTF-8

    Codec ID                                 : S_TEXT/UTF8

    Codec ID/Info                            : UTF-8 Plain Text

    Duration                                 : 1 h 57 min

    Bit rate                                 : 47 b/s

    Count of elements                        : 1417

    Stream size                              : 41.1 KiB (0%)

    Language                                 : German

    Default                                  : No

    Forced                                   : No

    Text #7

    ID                                       : 9

    Format                                   : UTF-8

    Codec ID                                 : S_TEXT/UTF8

    Codec ID/Info                            : UTF-8 Plain Text

    Duration                                 : 1 h 57 min

    Bit rate                                 : 76 b/s

    Count of elements                        : 1416

    Stream size                              : 65.3 KiB (0%)

    Language                                 : Greek

    Default                                  : No

    Forced                                   : No

    Text #8

    ID                                       : 10

    Format                                   : UTF-8

    Codec ID                                 : S_TEXT/UTF8

    Codec ID/Info                            : UTF-8 Plain Text

    Duration                                 : 1 h 57 min

    Bit rate                                 : 41 b/s

    Count of elements                        : 1239

    Stream size                              : 35.4 KiB (0%)

    Language                                 : Spanish

    Default                                  : No

    Forced                                   : No

    Text #9

    ID                                       : 11

    Format                                   : UTF-8

    Codec ID                                 : S_TEXT/UTF8

    Codec ID/Info                            : UTF-8 Plain Text

    Duration                                 : 1 h 57 min

    Bit rate                                 : 48 b/s

    Count of elements                        : 1433

    Stream size                              : 41.3 KiB (0%)

    Title                                    : European

    Language                                 : Spanish

    Default                                  : No

    Forced                                   : No

    Text #10

    ID                                       : 12

    Format                                   : UTF-8

    Codec ID                                 : S_TEXT/UTF8

    Codec ID/Info                            : UTF-8 Plain Text

    Duration                                 : 1 h 56 min

    Bit rate                                 : 45 b/s

    Count of elements                        : 1178

    Stream size                              : 38.6 KiB (0%)

    Language                                 : Finnish

    Default                                  : No

    Forced                                   : No

    Text #11

    ID                                       : 13

    Format                                   : UTF-8

    Codec ID                                 : S_TEXT/UTF8

    Codec ID/Info                            : UTF-8 Plain Text

    Duration                                 : 1 h 57 min

    Bit rate                                 : 50 b/s

    Count of elements                        : 1429

    Stream size                              : 43.7 KiB (0%)

    Language                                 : French

    Default                                  : No

    Forced                                   : No

    Text #12

    ID                                       : 14

    Format                                   : UTF-8

    Codec ID                                 : S_TEXT/UTF8

    Codec ID/Info                            : UTF-8 Plain Text

    Duration                                 : 1 h 57 min

    Bit rate                                 : 74 b/s

    Count of elements                        : 1434

    Stream size                              : 64.0 KiB (0%)

    Language                                 : Hebrew

    Default                                  : No

    Forced                                   : No

    Text #13

    ID                                       : 15

    Format                                   : UTF-8

    Codec ID                                 : S_TEXT/UTF8

    Codec ID/Info                            : UTF-8 Plain Text

    Duration                                 : 1 h 57 min

    Bit rate                                 : 46 b/s

    Count of elements                        : 1442

    Stream size                              : 39.5 KiB (0%)

    Language                                 : Indonesian

    Default                                  : No

    Forced                                   : No

    Text #14

    ID                                       : 16

    Format                                   : UTF-8

    Codec ID                                 : S_TEXT/UTF8

    Codec ID/Info                            : UTF-8 Plain Text

    Duration                                 : 1 h 57 min

    Bit rate                                 : 48 b/s

    Count of elements                        : 1435

    Stream size                              : 41.6 KiB (0%)

    Language                                 : Italian

    Default                                  : No

    Forced                                   : No

    Text #15

    ID                                       : 17

    Format                                   : UTF-8

    Codec ID                                 : S_TEXT/UTF8

    Codec ID/Info                            : UTF-8 Plain Text

    Duration                                 : 1 h 57 min

    Bit rate                                 : 43 b/s

    Count of elements                        : 1421

    Stream size                              : 37.4 KiB (0%)

    Language                                 : Japanese

    Default                                  : No

    Forced                                   : No

    Text #16

    ID                                       : 18

    Format                                   : UTF-8

    Codec ID                                 : S_TEXT/UTF8

    Codec ID/Info                            : UTF-8 Plain Text

    Duration                                 : 1 h 56 min

    Bit rate                                 : 56 b/s

    Count of elements                        : 1437

    Stream size                              : 48.5 KiB (0%)

    Language                                 : Korean

    Default                                  : No

    Forced                                   : No

    Text #17

    ID                                       : 19

    Format                                   : UTF-8

    Codec ID                                 : S_TEXT/UTF8

    Codec ID/Info                            : UTF-8 Plain Text

    Duration                                 : 1 h 57 min

    Bit rate                                 : 40 b/s

    Count of elements                        : 1419

    Stream size                              : 34.7 KiB (0%)

    Language                                 : Norwegian Bokmal

    Default                                  : No

    Forced                                   : No

    Text #18

    ID                                       : 20

    Format                                   : UTF-8

    Codec ID                                 : S_TEXT/UTF8

    Codec ID/Info                            : UTF-8 Plain Text

    Duration                                 : 1 h 57 min

    Bit rate                                 : 41 b/s

    Count of elements                        : 1179

    Stream size                              : 35.3 KiB (0%)

    Language                                 : Dutch

    Default                                  : No

    Forced                                   : No

    Text #19

    ID                                       : 21

    Format                                   : UTF-8

    Codec ID                                 : S_TEXT/UTF8

    Codec ID/Info                            : UTF-8 Plain Text

    Duration                                 : 1 h 57 min

    Bit rate                                 : 44 b/s

    Count of elements                        : 1429

    Stream size                              : 37.9 KiB (0%)

    Language                                 : Polish

    Default                                  : No

    Forced                                   : No

    Text #20

    ID                                       : 22

    Format                                   : UTF-8

    Codec ID                                 : S_TEXT/UTF8

    Codec ID/Info                            : UTF-8 Plain Text

    Duration                                 : 1 h 57 min

    Bit rate                                 : 47 b/s

    Count of elements                        : 1443

    Stream size                              : 41.1 KiB (0%)

    Language                                 : Portuguese

    Default                                  : No

    Forced                                   : No

    Text #21

    ID                                       : 23

    Format                                   : UTF-8

    Codec ID                                 : S_TEXT/UTF8

    Codec ID/Info                            : UTF-8 Plain Text

    Duration                                 : 1 h 57 min

    Bit rate                                 : 49 b/s

    Count of elements                        : 1403

    Stream size                              : 42.3 KiB (0%)

    Title                                    : Brazilian

    Language                                 : Portuguese

    Default                                  : No

    Forced                                   : No

    Text #22

    ID                                       : 24

    Format                                   : UTF-8

    Codec ID                                 : S_TEXT/UTF8

    Codec ID/Info                            : UTF-8 Plain Text

    Duration                                 : 1 h 57 min

    Bit rate                                 : 51 b/s

    Count of elements                        : 1373

    Stream size                              : 44.3 KiB (0%)

    Language                                 : Romanian

    Default                                  : No

    Forced                                   : No

    Text #23

    ID                                       : 25

    Format                                   : UTF-8

    Codec ID                                 : S_TEXT/UTF8

    Codec ID/Info                            : UTF-8 Plain Text

    Duration                                 : 1 h 57 min

    Bit rate                                 : 71 b/s

    Count of elements                        : 1397

    Stream size                              : 61.1 KiB (0%)

    Language                                 : Russian

    Default                                  : No

    Forced                                   : No

    Text #24

    ID                                       : 26

    Format                                   : UTF-8

    Codec ID                                 : S_TEXT/UTF8

    Codec ID/Info                            : UTF-8 Plain Text

    Duration                                 : 1 h 57 min

    Bit rate                                 : 44 b/s

    Count of elements                        : 1399

    Stream size                              : 38.2 KiB (0%)

    Language                                 : Swedish

    Default                                  : No

    Forced                                   : No

    Text #25

    ID                                       : 27

    Format                                   : UTF-8

    Codec ID                                 : S_TEXT/UTF8

    Codec ID/Info                            : UTF-8 Plain Text

    Duration                                 : 1 h 57 min

    Bit rate                                 : 118 b/s

    Count of elements                        : 1440

    Stream size                              : 101 KiB (0%)

    Language                                 : Thai

    Default                                  : No

    Forced                                   : No

    Text #26

    ID                                       : 28

    Format                                   : UTF-8

    Codec ID                                 : S_TEXT/UTF8

    Codec ID/Info                            : UTF-8 Plain Text

    Duration                                 : 1 h 57 min

    Bit rate                                 : 49 b/s

    Count of elements                        : 1437

    Stream size                              : 42.5 KiB (0%)

    Language                                 : Turkish

    Default                                  : No

    Forced                                   : No

    Text #27

    ID                                       : 29

    Format                                   : UTF-8

    Codec ID                                 : S_TEXT/UTF8

    Codec ID/Info                            : UTF-8 Plain Text

    Duration                                 : 1 h 57 min

    Bit rate                                 : 48 b/s

    Count of elements                        : 1435

    Stream size                              : 41.5 KiB (0%)

    Title                                    : Simplified

    Language                                 : Chinese

    Default                                  : No

    Forced                                   : No

    Text #28

    ID                                       : 30

    Format                                   : UTF-8

    Codec ID                                 : S_TEXT/UTF8

    Codec ID/Info                            : UTF-8 Plain Text

    Duration                                 : 1 h 57 min

    Bit rate                                 : 48 b/s

    Count of elements                        : 1445

    Stream size                              : 41.5 KiB (0%)

    Title                                    : Traditional

    Language                                 : Chinese

    Default                                  : No

    Forced                                   : No

    `

    image

    image

    image

    image


    More at ibit.to
    And ibit.uno
    And ibit.ws

    Reviews

    _Triple Frontier_ seems to want to say some important things about the way the US simultaneously uses its soldiers to enforce its will on other nations, yet also completely fails to take care of said soldiers, especially after they've retired. But that really seems like an afterthought in a pretty baseline classic heist formula. Nobody fails _Triple Frontier_ particularly, it just gets lost trying to pick between a brodown and a message. _Final rating:★★½ - Had a lot that appealed to me, didn’t quite work as a whole._

    Comments

    Files

    Triple.Frontier.2019.720p.NF.WEB-DL.x265.HEVCBay.com.mkv 410 MB

    Stream

    Downloading Seeding Triple.Frontier.2019.720p.NF.WEB-DL.x265.HEVCBay.com.mkv from to 0 peers.
    of
    0 b/s / ↗0 b/s