• -
  • -
  • done
Downloadondemand_video
72%

Total Recall (1990)

  • Action Adventure Science Fiction
  • Construction worker Douglas Quaid discovers a memory chip in his brain during a virtual-reality trip. He also finds that his past has been invented to conceal a plot of planetary domination. Soon, he's off to Mars to find out who he is and who planted the chip.

    expand_more
    English
  • $65,000,000
  • Description

    Title: Total Recall (1990)
    Stars: Arnold Schwarzenegger, Sharon Stone, Michael Ironside
    IMDB: https://www.imdb.com/title/tt0100802/
    When a man goes for virtual vacation memories of the planet Mars, an unexpected and harrowing series of events forces him to go to the planet for real - or is he?
    Video .................. 1951 kb/s 1080p HEVC
    Audio .................. 640 kb/s AC3 5.1
    Subtitles .............. English SubRip
    Runtime ................ 1h 53min
    Video
    ID : 1
    Format : HEVC
    Format/Info : High Efficiency Video Coding
    Format profile : Main [email protected]@Main
    Codec ID : VMPEGH/ISO/HEVC
    Duration : 1 h 53 min
    Bit rate : 1 951 kb/s
    Width : 1 920 pixels
    Height : 1 080 pixels
    Display aspect ratio : 16:9
    Frame rate mode : Variable
    Original frame rate : 24.000 FPS
    Color space : YUV
    Chroma subsampling : 4:2:0
    Bit depth : 10 bits
    Stream size : 1.54 GiB (74%)
    Title : Total.Recall.1990.REMASTERED.1080p.BluRay.AC35.1.x265-GREP
    Writing library : x265 2.9:[Linux][GCC 8.2.0][64 bit] 10bit
    Encoding settings : cpuid=1111039 / frame-threads=4 / wpp / no-pmode / no-pme / no-psnr / no-ssim / log-level=2 / input-csp=1 / input-res=1920x1080 / interlace=0 / total-frames=0 / level-idc=0 / high-tier=1 / uhd-bd=0 / ref=4 / no-allow-non-conformance / no-repeat-headers / annexb / no-aud / no-hrd / info / hash=0 / no-temporal-layers / open-gop / min-keyint=24 / keyint=250 / gop-lookahead=0 / bframes=4 / b-adapt=2 / b-pyramid / bframe-bias=0 / rc-lookahead=25 / lookahead-slices=4 / scenecut=40 / radl=0 / no-intra-refresh / ctu=64 / min-cu-size=8 / rect / no-amp / max-tu-size=32 / tu-inter-depth=1 / tu-intra-depth=1 / limit-tu=0 / rdoq-level=2 / dynamic-rd=0.00 / no-ssim-rd / signhide / no-tskip / nr-intra=0 / nr-inter=0 / no-constrained-intra / strong-intra-smoothing / max-merge=3 / limit-refs=3 / limit-modes / me=3 / subme=3 / merange=57 / temporal-mvp / weightp / no-weightb / no-analyze-src-pics / deblock=0:0 / no-sao / no-sao-non-deblock / rd=4 / no-early-skip / rskip / no-fast-intra / no-tskip-fast / no-cu-lossless / no-b-intra / no-splitrd-skip / rdpenalty=0 / psy-rd=2.00 / psy-rdoq=1.00 / no-rd-refine / no-lossless / cbqpoffs=0 / crqpoffs=0 / rc=abr / bitrate=2000 / qcomp=0.60 / qpstep=4 / stats-write=0 / stats-read=2 / cplxblur=20.0 / qblur=0.5 / ipratio=1.40 / pbratio=1.30 / aq-mode=3 / aq-strength=1.00 / cutree / zone-count=0 / no-strict-cbr / qg-size=32 / no-rc-grain / qpmax=69 / qpmin=0 / no-const-vbv / sar=1 / overscan=0 / videoformat=5 / range=0 / colorprim=2 / transfer=2 / colormatrix=2 / chromaloc=0 / display-window=0 / max-cll=0,0 / min-luma=0 / max-luma=1023 / log2-max-poc-lsb=8 / vui-timing-info / vui-hrd-info / slices=1 / no-opt-qp-pps / no-opt-ref-list-length-pps / no-multi-pass-opt-rps / scenecut-bias=0.05 / no-opt-cu-delta-qp / no-aq-motion / no-hdr / no-hdr-opt / no-dhdr10-opt / no-idr-recovery-sei / analysis-reuse-level=5 / scale-factor=0 / refine-intra=0 / refine-inter=0 / refine-mv=0 / no-limit-sao / ctu-info=0 / no-lowpass-dct / refine-mv-type=0 / copy-pic=1 / max-ausize-factor=1.0 / no-dynamic-refine / no-single-sei
    Language : English
    Default : Yes
    Forced : No
    Color range : Limited
    Audio
    ID : 2
    Format : AC-3
    Format/Info : Audio Coding 3
    Commercial name : Dolby Digital
    Codec ID : A
    AC3
    Duration : 1 h 53 min
    Bit rate mode : Constant
    Bit rate : 640 kb/s
    Channel(s) : 6 channels
    Channel layout : L R C LFE Ls Rs
    Sampling rate : 48.0 kHz
    Frame rate : 31.250 FPS (1536 SPF)
    Bit depth : 16 bits
    Compression mode : Lossy
    Stream size : 519 MiB (24%)
    Title : Total.Recall.1990.REMASTERED.1080p.BluRay.AC35.1.x265-GREP
    Language : English
    Service kind : Complete Main
    Default : Yes
    Forced : No
    Text
    ID : 3
    Format : UTF-8
    Codec ID : S_TEXT/UTF8
    Codec ID/Info : UTF-8 Plain Text
    Duration : 1 h 49 min
    Language : English
    Default : Yes
    Forced : No


    More at ibit.to
    And ibit.uno
    And ibit.am
    And ibit.ws

    Reviews

    Intrinsically Verhoeven, _Total Recall_ is a film from my youth that I probably shouldn't have been watching quite as early as I did, but that I still love to this day. All the practical effects, exquisite violence & nudity and provocative sci-fi themes you've come to expect from this sort of thing, but twists and turns that start just five minutes in and keep running all the way through to the end. _Total Recall_ is a must-see. _Final rating:★★★★ - Very strong appeal. A personal favourite._

    Verhoeven bonkers adaptation of a P. K. Dick story. Doug Quaid keeps getting recurring dreams about a visit to Mars. In spite of his friends warnings, he decides to have a memory implanted Mars holiday. But during the implantation he remembers being a secret agent who is fighting evil Mars boss Vilos Cohaagen. Things are about to go very intergalactic bonkers indeed. Total Recall finds director Paul Verhoeven on particularly OTT form, with the often maligned director cranking up the action and violence to the max. So then, who better to play out the carnage than the big Austrian oak himself, Arnold Schwarzenegger? It was actually Schwarzenegger who brought Verhoeven into the picture. The idea for the film had been kicking around for years, a number of director's came and went, David Cronenberg famously worked on a screenplay for a year only to have it jettisoned for being too close to the P. K. Dick short story "We Can Remember It For You Wholesale". The makers wanted a high energy sci-fi blockbuster, a star vehicle for Schwarzenegger, and Verhoeven was only too happy to oblige. Total Recall is a fascinating concept as we find ourselves wondering what in fact is reality? Quaid himself is never quite sure as the film takes a delicious twist at the midpoint to further compound the confusion, but in true Verhoeven style, it all comes crashing together in a giant ball of bangs, crashes and explosions. It should be noted that the film is far removed from the cerebral essence of Dick's story, and really when one saw that Schwarzenegger was to star in a Verhoeven directed adaptation, one really should be prepared for the high octane brain dumb down that Total Recall is. Something which was beyond some highbrow critics who are still baffled by the gargantuan financial success of the film (it made over $260 million worldwide). Fleshing out the cast are a stoic reliable bunch. Rachael Ticotin, Ronny Cox, Sharon Stone & Michael Ironside deliver the expected tongue in cheek professionalism. While the effects prove to be a mixture of the poor and the decent; tho it's nice to see the often lost art of model work being of a pretty high standard. All of which leaves me personally with a film that I find to be a hugely enjoyable piece of uber violent popcorn fodder. 8/10

    Comments

    Files

    Total.Recall.1990.REMASTERED.1080p.BluRay.AC35.1.x265-GREP -

    Stream

    Downloading Seeding Total.Recall.1990.REMASTERED.1080p.BluRay.AC35.1.x265-GREP from to 0 peers.
    of
    0 b/s / ↗0 b/s