• 12
  • 36
  • done
Anonymous Downloadondemand_video
  • The War of the Worlds (2019) S01 (1080p AMZN Webrip x265 10bit EAC3 2.0 - Goki)
  • 2.4 GB
  • goki
  • War Worlds 2019 S01 1080p AMZN Webrip x265 10bit EAC3 Goki
  • English
  • HEVC/x265
Warning! Use a VPN When Downloading Torrents!
Your IP Address is ,
Your Internet Provider can see when you download torrents! Hide your IP ADDRESS with a VPN
We strongly recommend hide.me VPN to hide your torrenting. It's FREE!
DOWNLOAD VPN
65%

The War of the Worlds: The War of the Worlds(2019)

  • Sci-Fi & Fantasy Drama
  • In Edwardian England, George and his partner Amy attempt to defy society and start a life together as they face the escalating terror of an alien invasion, fighting for their lives against an enemy beyond their comprehension.

    expand_more
    English

    Description

    image

    image

    The War of the Worlds (2019) IMDB

    image

    image

    image

    image

    Media Information

    Format                                   : Matroska

    Format version                           : Version 4

    Writing application                      : mkvmerge v28.2.0 ('The Awakening') 64-bit

    Writing library                          : libebml v1.3.6 + libmatroska v1.4.9

    Video

    ID                                       : 1

    Format                                   : HEVC

    Format/Info                              : High Efficiency Video Coding

    Format profile                           : Main [email protected]@Main

    Codec ID                                 : V_MPEGH/ISO/HEVC

    Duration                                 : 53 min 48 s

    Bit rate                                 : 2 307 kb/s

    Width                                    : 1 920 pixels

    Height                                   : 1 080 pixels

    Display aspect ratio                     : 16:9

    Frame rate mode                          : Constant

    Frame rate                               : 25.000 FPS

    Color space                              : YUV

    Chroma subsampling                       : 4:2:0

    Bit depth                                : 10 bits

    Bits/(Pixel*Frame)                       : 0.044

    Stream size                              : 888 MiB (91%)

    Writing library                          : x265 2.9+8-27d8424c799d:[Windows][MSVC 1915][64 bit] 10bit

    Encoding settings                        : cpuid=1111039 / frame-threads=2 / numa-pools=6 / wpp / no-pmode / no-pme / no-psnr / no-ssim / log-level=2 / input-csp=1 / input-res=1920x1080 / interlace=0 / total-frames=0 / level-idc=0 / high-tier=1 / uhd-bd=0 / ref=4 / no-allow-non-conformance / no-repeat-headers / annexb / no-aud / no-hrd / info / hash=0 / no-temporal-layers / open-gop / min-keyint=25 / keyint=250 / gop-lookahead=0 / bframes=8 / b-adapt=2 / b-pyramid / bframe-bias=0 / rc-lookahead=100 / lookahead-slices=4 / scenecut=40 / radl=0 / no-intra-refresh / ctu=64 / min-cu-size=8 / no-rect / no-amp / max-tu-size=32 / tu-inter-depth=1 / tu-intra-depth=1 / limit-tu=0 / rdoq-level=2 / dynamic-rd=0.00 / no-ssim-rd / signhide / no-tskip / nr-intra=0 / nr-inter=0 / no-constrained-intra / no-strong-intra-smoothing / max-merge=3 / limit-refs=3 / limit-modes / me=3 / subme=5 / merange=57 / temporal-mvp / weightp / no-weightb / no-analyze-src-pics / deblock=0:0 / sao / no-sao-non-deblock / rd=4 / no-early-skip / rskip / no-fast-intra / no-tskip-fast / no-cu-lossless / no-b-intra / no-splitrd-skip / rdpenalty=0 / psy-rd=1.30 / psy-rdoq=2.00 / no-rd-refine / no-lossless / cbqpoffs=0 / crqpoffs=0 / rc=crf / crf=20.0 / qcomp=0.60 / qpstep=4 / stats-write=0 / stats-read=0 / ipratio=1.40 / pbratio=1.30 / aq-mode=2 / aq-strength=1.10 / cutree / zone-count=0 / no-strict-cbr / qg-size=32 / no-rc-grain / qpmax=69 / qpmin=0 / no-const-vbv / sar=1 / overscan=0 / videoformat=5 / range=0 / colorprim=2 / transfer=2 / colormatrix=2 / chromaloc=0 / display-window=0 / max-cll=0,0 / min-luma=0 / max-luma=1023 / log2-max-poc-lsb=8 / vui-timing-info / vui-hrd-info / slices=1 / no-opt-qp-pps / no-opt-ref-list-length-pps / no-multi-pass-opt-rps / scenecut-bias=0.05 / no-opt-cu-delta-qp / no-aq-motion / no-hdr / no-hdr-opt / no-dhdr10-opt / no-idr-recovery-sei / analysis-reuse-level=5 / scale-factor=0 / refine-intra=0 / refine-inter=0 / refine-mv=0 / no-limit-sao / ctu-info=0 / no-lowpass-dct / refine-mv-type=0 / copy-pic=1 / max-ausize-factor=1.0 / no-dynamic-refine / no-single-sei

    Default                                  : Yes

    Forced                                   : No

    Audio

    ID                                       : 2

    Format                                   : E-AC-3

    Format/Info                              : Enhanced AC-3

    Commercial name                          : Dolby Digital Plus

    Codec ID                                 : A_EAC3

    Duration                                 : 53 min 48 s

    Bit rate mode                            : Constant

    Bit rate                                 : 224 kb/s

    Channel(s)                               : 2 channels

    Channel layout                           : L R

    Sampling rate                            : 48.0 kHz

    Frame rate                               : 31.250 FPS (1536 SPF)

    Compression mode                         : Lossy

    Stream size                              : 86.2 MiB (9%)

    Language                                 : English

    Service kind                             : Complete Main

    Default                                  : Yes

    Forced                                   : No

    Source

    1080p AMZN WEB-DL NTb

    .........................................................................................................................................


    More at ibit.to
    And ibit.uno
    And ibit.am
    And ibit.ws

    Reviews

    Comments

    Files

    banner.jpg 54 kB
    fanart.jpg 339 kB
    poster.jpg 213 kB
    The War of the Worlds (2019) S01E01 (1080p AMZN Webrip x265 10bit EAC3 2.0 - Goki).mkv 801 MB
    The War of the Worlds (2019) S01E01 (1080p AMZN Webrip x265 10bit EAC3 2.0 - Goki).nfo 1.6 kB
    The War of the Worlds (2019) S01E02 (1080p AMZN Webrip x265 10bit EAC3 2.0 - Goki)-thumb.jpg 168 kB
    The War of the Worlds (2019) S01E02 (1080p AMZN Webrip x265 10bit EAC3 2.0 - Goki).mkv 975 MB
    The War of the Worlds (2019) S01E02 (1080p AMZN Webrip x265 10bit EAC3 2.0 - Goki).nfo 1.6 kB
    The War of the Worlds (2019) S01E03 (1080p AMZN Webrip x265 10bit EAC3 2.0 - Goki)-thumb.jpg 98 kB
    The War of the Worlds (2019) S01E03 (1080p AMZN Webrip x265 10bit EAC3 2.0 - Goki).mkv 666 MB
    The War of the Worlds (2019) S01E03 (1080p AMZN Webrip x265 10bit EAC3 2.0 - Goki).nfo 1.6 kB
    thumb.jpg 125 kB
    tvshow.nfo 2.3 kB

    Stream

    Downloading Seeding The War of the Worlds (2019) S01 (1080p AMZN Webrip x265 10bit EAC3 2.0 - Goki) from to 0 peers.
    of
    0 b/s / ↗0 b/s