• 2,147,483,647
  • 53
  • done
Download
  • Tchaikovsky, Ewald - The Philadelphia Orchestra, Eschenbach - 2010
  • 478 MB
  • a-z
  • Tchaikovsky Ewald Philadelphia Orchestra Eschenbach 2010
  • Классическая и современная ака

Description

Чайковский - Ромео и Джульетта; Серенада; Франческа да Римини / Эвальд - Духовые квинтеты №№ 1 и 3 - The Philadelphia Orchestra, Christoph Eschenbach

image

Жанр : Classical

Страна-производитель диска : Finland

Год издания диска : 2010

Издатель (лейбл) : Ondine

Номер по каталогу : ODE 1150-2D

Дата записи : 2007-2009

Аудиокодек : FLAC

Тип рипа : image+.cue

Битрейт аудио : lossless

Продолжительность : 1:53:46

Источник : собственный рип

Наличие сканов в содержимом раздачи : да

Треклист :

CD1

Петр Чайковский

(1840–1893)
[1] Ромео и Джульетта

[2]-[5] Серенада для струнного оркестра до мажор, Op.48

CD2

Петр Чайковский

[1] Франческа да Римини

Виктор Эвальд

(1860–1935)
[2]-[4] Духовой квинтет №1 си бемоль минор, Op.5

[5]-[8] Духовой квинтет №3 ре бемоль мажор, Op.7

Исполнители :

The Philadelphia Orchestra

(CD1, CD2 [1])

Christoph Eschenbach

conductor (CD1, CD2 [1])

Members of The Philadelphia Orchestra

(CD2 [2]-[8]):

David Bilger trumpet

Jeffrey Curnow trumpet

Jennifer Montone French horn

Nitzan Haroz trombone

Carol Jantsch tuba

Лог создания рипа: CD1

`Exact Audio Copy V1.3 from 2. September 2016

EAC extraction logfile from 27. February 2019, 21:50

The Philadelphia Orchestra, Christoph Eschenbach / Tchaikovsky - Romeo and Juliet; String Serenade

Used drive : ASUS SDRW-08U7M-U Adapter: 1 ID: 1

Read mode : Secure
Utilize accurate stream : Yes
Defeat audio cache : Yes
Make use of C2 pointers : No

Read offset correction : 6
Overread into Lead-In and Lead-Out : No
Fill up missing offset samples with silence : Yes
Delete leading and trailing silent blocks : No
Null samples used in CRC calculations : Yes
Used interface : Native Win32 interface for Win NT & 2000

Used output format : User Defined Encoder
Selected bitrate : 128 kBit/s
Quality : High
Add ID3 tag : No
Command line compressor : C:Program Files (x86)Exact Audio CopyFlacflac.exe
Additional command line options : -V -8 -T "Date=%year%" -T "Genre=%genre%" %source%

TOC of the extracted CD

Track | Start | Length | Start sector | End sector


1 | 0:00.00 | 22:31.50 | 0 | 101374
2 | 22:31.50 | 10:46.00 | 101375 | 149824
3 | 33:17.50 | 4:03.37 | 149825 | 168086
4 | 37:21.12 | 11:17.03 | 168087 | 218864
5 | 48:38.15 | 8:16.35 | 218865 | 256099

Range status and errors

Selected range

Filename C:tempTchaikovsky, Ewald - The Philadelphia Orchestra, Eschenbach - 2010CD1Tchaikovsky - Romeo and Juliet; String Serenade.wav

Peak level 98.2 %
Extraction speed 4.5 X
Range quality 100.0 %
Test CRC A16D49AF
Copy CRC A16D49AF
Copy OK

No errors occurred

AccurateRip summary

Track 1 accurately ripped (confidence 6) 0B950178
Track 2 accurately ripped (confidence 6) B7D928F0
Track 3 accurately ripped (confidence 6) 2A2DF863
Track 4 accurately ripped (confidence 6) 626FA900
Track 5 accurately ripped (confidence 6) 52AF6F7C

All tracks accurately ripped

End of status report

==== Log checksum C54D2F9EA0D207DB74F113F75B53FCD9F887753511AD6A7C914B8261CA411C53 ==== `

Лог создания рипа: CD2

`Exact Audio Copy V1.3 from 2. September 2016

EAC extraction logfile from 27. February 2019, 22:23

The Philadelphia Orchestra, Christoph Eschenbach / Tchaikovsky - Francesca da Rimini; Ewald - Brass Quintets

Used drive : ASUS SDRW-08U7M-U Adapter: 1 ID: 1

Read mode : Secure
Utilize accurate stream : Yes
Defeat audio cache : Yes
Make use of C2 pointers : No

Read offset correction : 6
Overread into Lead-In and Lead-Out : No
Fill up missing offset samples with silence : Yes
Delete leading and trailing silent blocks : No
Null samples used in CRC calculations : Yes
Used interface : Native Win32 interface for Win NT & 2000

Used output format : User Defined Encoder
Selected bitrate : 128 kBit/s
Quality : High
Add ID3 tag : No
Command line compressor : C:Program Files (x86)Exact Audio CopyFlacflac.exe
Additional command line options : -V -8 -T "Date=%year%" -T "Genre=%genre%" %source%

TOC of the extracted CD

Track | Start | Length | Start sector | End sector


1 | 0:00.00 | 26:33.60 | 0 | 119534
2 | 26:33.60 | 4:46.59 | 119535 | 141043
3 | 31:20.44 | 3:47.03 | 141044 | 158071
4 | 35:07.47 | 3:54.07 | 158072 | 175628
5 | 39:01.54 | 5:30.39 | 175629 | 200417
6 | 44:32.18 | 4:35.68 | 200418 | 221110
7 | 49:08.11 | 3:51.43 | 221111 | 238478
8 | 52:59.54 | 3:47.59 | 238479 | 255562

Range status and errors

Selected range

Filename C:tempTchaikovsky, Ewald - The Philadelphia Orchestra, Eschenbach - 2010CD2Tchaikovsky - Francesca da Rimini; Ewald - Brass Quintets.wav

Peak level 97.9 %
Extraction speed 4.6 X
Range quality 100.0 %
Test CRC C84AC961
Copy CRC C84AC961
Copy OK

No errors occurred

AccurateRip summary

Track 1 accurately ripped (confidence 6) 5BE08A9F
Track 2 accurately ripped (confidence 6) 16AFD495
Track 3 accurately ripped (confidence 6) 7934C6EA
Track 4 accurately ripped (confidence 6) 9599351D
Track 5 accurately ripped (confidence 6) A4C6B65D
Track 6 accurately ripped (confidence 6) 0F02342D
Track 7 accurately ripped (confidence 6) A1F467A0
Track 8 accurately ripped (confidence 6) FF524343

All tracks accurately ripped

End of status report

==== Log checksum 0B03704D78C323EC243D70900B2226C04C2FC97AEAAD972253F6B80DDC943A7B ==== `

Содержание индексной карты (.CUE): CD1

REM GENRE Classical REM DATE 2010 REM DISCID 420D5605 REM COMMENT "ExactAudioCopy v1.3" PERFORMER "The Philadelphia Orchestra, Christoph Eschenbach" TITLE "Tchaikovsky - Romeo and Juliet; String Serenade" REM COMPOSER "Pyotr Ilyich Tchaikovsky" FILE "Tchaikovsky - Romeo and Juliet; String Serenade.flac" WAVE TRACK 01 AUDIO TITLE "Romeo and Juliet" PERFORMER "The Philadelphia Orchestra, Christoph Eschenbach" REM COMPOSER "Pyotr Ilyich Tchaikovsky" INDEX 01 00:00:00 TRACK 02 AUDIO TITLE "Serenade in C major for String Orchestra, Op.48 - I. Pezzo in forma di Sonatina" PERFORMER "The Philadelphia Orchestra, Christoph Eschenbach" REM COMPOSER "Pyotr Ilyich Tchaikovsky" INDEX 00 22:20:72 INDEX 01 22:31:50 TRACK 03 AUDIO TITLE "Serenade in C major for String Orchestra, Op.48 - II. Valse" PERFORMER "The Philadelphia Orchestra, Christoph Eschenbach" REM COMPOSER "Pyotr Ilyich Tchaikovsky" INDEX 01 33:17:50 TRACK 04 AUDIO TITLE "Serenade in C major for String Orchestra, Op.48 - III. Elegia" PERFORMER "The Philadelphia Orchestra, Christoph Eschenbach" REM COMPOSER "Pyotr Ilyich Tchaikovsky" INDEX 01 37:21:12 TRACK 05 AUDIO TITLE "Serenade in C major for String Orchestra, Op.48 - IV. Finale (Tema russo)" PERFORMER "The Philadelphia Orchestra, Christoph Eschenbach" REM COMPOSER "Pyotr Ilyich Tchaikovsky" INDEX 01 48:38:15

Содержание индексной карты (.CUE): CD2

REM GENRE Classical REM DATE 2010 REM DISCID 710D4F08 REM COMMENT "ExactAudioCopy v1.3" PERFORMER "The Philadelphia Orchestra, Christoph Eschenbach" TITLE "Tchaikovsky - Francesca da Rimini; Ewald - Brass Quintets" REM COMPOSER "" FILE "Tchaikovsky - Francesca da Rimini; Ewald - Brass Quintets.flac" WAVE TRACK 01 AUDIO TITLE "Tchaikovsky - Francesca da Rimini Symphonic Fantasy" PERFORMER "The Philadelphia Orchestra, Christoph Eschenbach" REM COMPOSER "Pyotr Ilyich Tchaikovsky" INDEX 01 00:00:00 TRACK 02 AUDIO TITLE "Ewald: Brass Quintet No.1 in B flat minor, Op.5 - I. Moderato" PERFORMER "Members of The Philadelphia Orchestra" REM COMPOSER "Victor Ewald" INDEX 00 26:23:62 INDEX 01 26:33:60 TRACK 03 AUDIO TITLE "Ewald: Brass Quintet No.1 in B flat minor, Op.5 - II. Adagio - Allegro - Adagio" PERFORMER "Members of The Philadelphia Orchestra" REM COMPOSER "Victor Ewald" INDEX 01 31:20:44 TRACK 04 AUDIO TITLE "Ewald: Brass Quintet No.1 in B flat minor, Op.5 - III. Allegro moderato" PERFORMER "Members of The Philadelphia Orchestra" REM COMPOSER "Victor Ewald" INDEX 01 35:07:47 TRACK 05 AUDIO TITLE "Ewald: Brass Quintet No.3 in D flat major, Op.7 - I. Allegro moderato" PERFORMER "Members of The Philadelphia Orchestra" REM COMPOSER "Victor Ewald" INDEX 00 38:52:49 INDEX 01 39:01:54 TRACK 06 AUDIO TITLE "Ewald: Brass Quintet No.3 in D flat major, Op.7 - II. Intermezzo" PERFORMER "Members of The Philadelphia Orchestra" REM COMPOSER "Victor Ewald" INDEX 01 44:32:18 TRACK 07 AUDIO TITLE "Ewald: Brass Quintet No.3 in D flat major, Op.7 - III. Andante" PERFORMER "Members of The Philadelphia Orchestra" REM COMPOSER "Victor Ewald" INDEX 01 49:08:11 TRACK 08 AUDIO TITLE "Ewald: Brass Quintet No.3 in D flat major, Op.7 - IV. Vivo" PERFORMER "Members of The Philadelphia Orchestra" REM COMPOSER "Victor Ewald" INDEX 01 52:59:54


More at ibit.to
And ibit.uno
And ibit.am
And ibit.ws

Comments

Files

Tchaikovsky, Ewald - The Philadelphia Orchestra, Eschenbach - 2010ArtworkODE1150-2D-booklet-cover.jpg 824 kB
Tchaikovsky, Ewald - The Philadelphia Orchestra, Eschenbach - 2010ArtworkODE1150-2D-inlay.jpg 377 kB
Tchaikovsky, Ewald - The Philadelphia Orchestra, Eschenbach - 2010ArtworkODE1150-2D.jpg 231 kB
Tchaikovsky, Ewald - The Philadelphia Orchestra, Eschenbach - 2010ArtworkODE1150-2D.pdf 6.2 MB
Tchaikovsky, Ewald - The Philadelphia Orchestra, Eschenbach - 2010CD1Tchaikovsky - Romeo and Juliet; String Serenade.cue 1.5 kB
Tchaikovsky, Ewald - The Philadelphia Orchestra, Eschenbach - 2010CD1Tchaikovsky - Romeo and Juliet; String Serenade.flac 250 MB
Tchaikovsky, Ewald - The Philadelphia Orchestra, Eschenbach - 2010CD1Tchaikovsky - Romeo and Juliet; String Serenade.log 4.9 kB
Tchaikovsky, Ewald - The Philadelphia Orchestra, Eschenbach - 2010CD2Tchaikovsky - Francesca da Rimini; Ewald - Brass Quintets.cue 2.0 kB
Tchaikovsky, Ewald - The Philadelphia Orchestra, Eschenbach - 2010CD2Tchaikovsky - Francesca da Rimini; Ewald - Brass Quintets.flac 220 MB
Tchaikovsky, Ewald - The Philadelphia Orchestra, Eschenbach - 2010CD2Tchaikovsky - Francesca da Rimini; Ewald - Brass Quintets.log 5.7 kB

Stream

Downloading Seeding Tchaikovsky, Ewald - The Philadelphia Orchestra, Eschenbach - 2010 from to 0 peers.
of
0 b/s / ↗0 b/s