• -
  • -
  • done
Download
  • Sword Art Online: Progressive Movie - Hoshi Naki Yoru no Aria
  • 15 GB
  • greenbeast2015
  • Sword Art Online Progressive Movie Hoshi Naki Yoru Aria
  • Аниме (HD Video)

Description

Мастера Меча Онлайн: Прогрессив — Ария в беззвёздной ночи / Sword Art Online: Progressive Movie - Hoshi Naki Yoru no Aria / Sword Art Online the Movie: Progressive - Aria of a Starless Night

image

Страна : Япония

Год выпуска : 2021

Жанр : фэнтези, романтика, приключение

Тип : Movie

Продолжительность : 1ч 37 мин.

Режиссер : Рэки Кавахара, Аяко Коно, Ясуюки Кай

Студия : A-1 Pictures

Описание : Асуна Юки была лучшей ученицей, усердно готовилась к вступительным экзаменам в старшую школу, но это было до того, как она одолжила у брата игровую систему виртуальной реальности и оказалась в ловушке Sword Art Online вместе с десятью тысячами других напуганных игроков. Проходит время, и Асуна начинает бояться, что станет с её жизнью за пределами фантастического мира. Какой неудачницей она может оказаться в глазах сверстников и родителей. Не желая ждать в сторонке, пока более опытные игроки пройдут игру, Асуна использует свои способности к обучению, чтобы изучить механику игры и владение мечом. Её быстрота впечатляет Кирито, профессионального геймера, который приглашает Асуну присоединиться к лучшим игрокам на передовой. Готова ли Асуна поменять рейтинг класса на рейтинг игрока и присоединиться к Кирито?

Качество :

BDRip

Тип релиза : Без хардсаба

Формат видео : MKV

Наличие линковки : Нет

Релиз/Автор рипа :

[Beatrice-Raws] Jensen

Видео : HEVC, 10 bit, 1920x1080, 23,976 fps, 16.4 Mb/s

Аудио : FLAC, 48.0 kHz, 6ch, 3 052 kb/s Язык Японский

Аудио 2 : FLAC, 48.0 kHz, 2ch, 493 kb/s Язык Русский (в составе контейнера) ;

Озвучка 2: Многоголосая -

Amikiri, Hector, Hekomi, Sharon [Anilibria]

Аудио 3 : FLAC, 48.0 kHz, 6ch, 1 193 kb/s Язык Русский (в составе контейнера) ;

Озвучка 3: Многоголосая -

Amikiri, Hector, Hekomi, Sharon [Anilibria]

Аудио 4 : FLAC, 48.0 kHz, 6ch, 1 177 kb/s Язык Русский (в составе контейнера) ;

Озвучка 4: Дубляж -

Amikiri, Hector, Hekomi, Sharon [Anilibria]

Субтитры : ASS, встроенные Язык субтитров русский ;

Перевод:

Witch Of Envy

Субтитры 2 : ASS, встроенные Язык субтитров русский ;

Перевод 2:

VLDeshka

Субтитры 3 : ASS, встроенные Язык субтитров русский ;

Перевод 3:

Shaman, Teriliva, Evrey or zizika, Neri [Anilibria]

Подробные тех. данные

`
General
Unique ID : 88170718633516962220918046043251579438 (0x4255100EA4C136483F7420AB42A69A2E)
Complete name : D:Мастера Меча ОнлайнSword Art Online Progressive - Hoshi Naki Yoru no Aria [Movie] [2021, BDRip] [1080p][Beatrice-Raws] Sword Art Online - Progressive - Aria of a Starless Nighta [BDRip 1080p x265 FLAC].mkv
Format : Matroska
Format version : Version 4
File size : 15.2 GiB
Duration : 1 h 37 min
Overall bit rate mode : Variable
Overall bit rate : 22.3 Mb/s
Movie name : Sword Art Online the Movie -Progressive- Aria of a Starless Night
Encoded date : UTC 2022-09-04 18:28:32
Writing application : mkvmerge v70.0.0 ('Caught A Lite Sneeze') 64-bit
Writing library : libebml v1.4.2 + libmatroska v1.6.4
Attachments : ExcentraPro-SemiBold0.ttf / ExcentraPro-SemiBold0.ttf

Video
ID : 1
Format : HEVC
Format/Info : High Efficiency Video Coding
Format profile : Main [email protected]@Main
Codec ID : V_MPEGH/ISO/HEVC
Duration : 1 h 37 min
Bit rate : 16.4 Mb/s
Width : 1 920 pixels
Height : 1 080 pixels
Display aspect ratio : 16:9
Frame rate mode : Constant
Frame rate : 23.976 (24000/1001) FPS
Color space : YUV
Chroma subsampling : 4:2:0
Bit depth : 10 bits
Bits/(Pixel*Frame) : 0.331
Stream size : 11.1 GiB (74%)
Writing library : x265 3.5+20-4c4aee0bc:[DJATOM's Mod][Windows][GCC 10.2.1][64 bit] 10bit
Encoding settings : cpuid=1049583 / frame-threads=16 / numa-pools=24,24 / wpp / pmode / pme / no-psnr / no-ssim / log-level=2 / csv / csv-log-level=0 / input-csp=1 / input-res=1920x1080 / interlace=0 / total-frames=139566 / level-idc=0 / high-tier=1 / uhd-bd=0 / ref=4 / no-allow-non-conformance / no-repeat-headers / annexb / no-aud / no-hrd / info / hash=0 / temporal-layers / open-gop / min-keyint=23 / keyint=240 / gop-lookahead=0 / bframes=16 / b-adapt=2 / b-pyramid / bframe-bias=0 / rc-lookahead=240 / lookahead-slices=1 / scenecut=40 / hist-scenecut=0 / radl=0 / no-splice / no-intra-refresh / ctu=32 / min-cu-size=8 / no-rect / no-amp / max-tu-size=16 / tu-inter-depth=2 / tu-intra-depth=2 / limit-tu=0 / rdoq-level=2 / dynamic-rd=0.00 / no-ssim-rd / signhide / tskip / nr-intra=0 / nr-inter=0 / no-constrained-intra / no-strong-intra-smoothing / max-merge=5 / limit-refs=0 / no-limit-modes / me=3 / subme=7 / merange=57 / temporal-mvp / no-frame-dup / no-hme / weightp / weightb / analyze-src-pics / deblock=1:-1 / sao / no-sao-non-deblock / rd=5 / selective-sao=4 / no-early-skip / no-rskip / no-fast-intra / no-tskip-fast / no-cu-lossless / b-intra / no-splitrd-skip / rdpenalty=0 / psy-rd=2.00 / psy-rdoq=3.00 / no-rd-refine / no-lossless / cbqpoffs=-2 / crqpoffs=-2 / rc=crf / crf=15.0 / qcomp=0.72 / qpstep=4 / stats-write=0 / stats-read=0 / ipratio=1.40 / pbratio=1.30 / aq-mode=3 / aq-strength=1.02 / no-cutree / zone-count=0 / no-strict-cbr / qg-size=32 / no-rc-grain / qpmax=69 / qpmin=0 / no-const-vbv / sar=0 / overscan=0 / videoformat=5 / range=0 / colorprim=1 / transfer=1 / colormatrix=1 / chromaloc=0 / display-window=0 / cll=0,0 / min-luma=0 / max-luma=1023 / log2-max-poc-lsb=8 / vui-timing-info / vui-hrd-info / slices=1 / no-opt-qp-pps / no-opt-ref-list-length-pps / no-multi-pass-opt-rps / scenecut-bias=0.05 / hist-threshold=0.03 / no-opt-cu-delta-qp / no-aq-motion / no-hdr10 / no-hdr10-opt / no-dhdr10-opt / no-idr-recovery-sei / analysis-reuse-level=0 / analysis-save-reuse-level=0 / analysis-load-reuse-level=0 / scale-factor=0 / refine-intra=4 / refine-inter=0 / refine-mv=3 / refine-ctu-distortion=0 / limit-sao / ctu-info=0 / no-lowpass-dct / refine-analysis-type=0 / copy-pic=1 / max-ausize-factor=1.0 / dynamic-refine / no-single-sei / no-hevc-aq / no-svt / no-field / qp-adaptation-range=1.00 / scenecut-aware-qp=0conformance-window-offsets / right=0 / bottom=0 / decoder-max-rate=0 / no-vbv-live-multi-pass
Language : Japanese
Default : Yes
Forced : No
Color range : Limited
Color primaries : BT.709
Transfer characteristics : BT.709
Matrix coefficients : BT.709

Audio #1
ID : 2
Format : FLAC
Format/Info : Free Lossless Audio Codec
Codec ID : A_FLAC
Duration : 1 h 37 min
Bit rate mode : Variable
Bit rate : 3 052 kb/s
Channel(s) : 6 channels
Channel layout : L R C LFE Ls Rs
Sampling rate : 48.0 kHz
Frame rate : 41.667 FPS (1152 SPF)
Bit depth : 24 bits
Compression mode : Lossless
Stream size : 2.07 GiB (14%)
Writing library : libFLAC 1.3.4 (UTC 2022-02-20)
Language : Japanese
Default : No
Forced : No

Audio #2
ID : 3
Format : FLAC
Format/Info : Free Lossless Audio Codec
Codec ID : A_FLAC
Duration : 1 h 37 min
Bit rate mode : Variable
Bit rate : 493 kb/s
Channel(s) : 2 channels
Channel layout : L R
Sampling rate : 48.0 kHz
Frame rate : 11.719 FPS (4096 SPF)
Bit depth : 16 bits
Compression mode : Lossless
Stream size : 342 MiB (2%)
Title : Amikiri, Hector, Hekomi, Sharon [AniLibria.TV]
Writing library : libFLAC 1.3.2 (UTC 2017-01-01)
Language : Russian
Default : Yes
Forced : Yes

Audio #3
ID : 4
Format : FLAC
Format/Info : Free Lossless Audio Codec
Codec ID : A_FLAC
Duration : 1 h 37 min
Bit rate mode : Variable
Bit rate : 1 193 kb/s
Channel(s) : 6 channels
Channel layout : L R C LFE Ls Rs
Sampling rate : 48.0 kHz
Frame rate : 11.719 FPS (4096 SPF)
Bit depth : 16 bits
Compression mode : Lossless
Stream size : 828 MiB (5%)
Title : (5.1) Amikiri, Hector, Hekomi, Sharon [AniLibria.TV]
Writing library : REAPER
Language : Russian
Default : No
Forced : No

Audio #4
ID : 5
Format : FLAC
Format/Info : Free Lossless Audio Codec
Codec ID : A_FLAC
Duration : 1 h 37 min
Bit rate mode : Variable
Bit rate : 1 177 kb/s
Channel(s) : 6 channels
Channel layout : L R C LFE Ls Rs
Sampling rate : 48.0 kHz
Frame rate : 11.719 FPS (4096 SPF)
Bit depth : 16 bits
Compression mode : Lossless
Stream size : 816 MiB (5%)
Title : (Dub) Amikiri, Hector, Hekomi, Sharon [AniLibria.TV]
Writing library : REAPER
Language : Russian
Default : No
Forced : No

Text #1
ID : 6
Format : ASS
Codec ID : S_TEXT/ASS
Codec ID/Info : Advanced Sub Station Alpha
Duration : 1 h 37 min
Bit rate : 123 b/s
Frame rate : 0.200 FPS
Count of elements : 1166
Compression mode : Lossless
Stream size : 88.0 KiB (0%)
Title : Witch Of Envy
Language : Russian
Default : No
Forced : No

Text #2
ID : 7
Format : ASS
Codec ID : S_TEXT/ASS
Codec ID/Info : Advanced Sub Station Alpha
Duration : 1 h 33 min
Bit rate : 119 b/s
Frame rate : 0.201 FPS
Count of elements : 1125
Compression mode : Lossless
Stream size : 81.6 KiB (0%)
Title : VLDeshka
Language : Russian
Default : No
Forced : No

Text #3
ID : 8
Format : ASS
Codec ID : S_TEXT/ASS
Codec ID/Info : Advanced Sub Station Alpha
Duration : 1 h 32 min
Bit rate : 188 b/s
Frame rate : 0.228 FPS
Count of elements : 1266
Compression mode : Lossless
Stream size : 128 KiB (0%)
Title : Shaman, Teriliva, Evrey or zizika, Neri [AniLibria.TV]
Language : Russian
Default : No
Forced : No

Menu
00:00:00.000 : en:Avant
00:00:18.769 : en:Part 01
00:02:52.839 : en:Part 02
00:05:44.344 : en:Part 03
00:12:04.140 : en:Part 04
00:17:02.271 : en:Part 05
00:18:41.620 : en:Part 06
00:27:15.759 : en:Part 07
00:29:44.032 : en:Part 08
00:33:49.027 : en:Part 09
00:39:24.195 : en:Part 10
00:41:42.375 : en:Part 11
00:44:26.956 : en:Part 12
00:48:54.056 : en:Part 13
00:51:05.396 : en:Part 14
00:56:16.623 : en:Part 15
01:01:49.789 : en:Part 16
01:04:59.562 : en:Part 17
01:10:35.565 : en:Part 18
01:13:13.472 : en:Part 19
01:16:06.437 : en:Part 20
01:20:19.565 : en:Part 21
01:25:20.782 : en:Part 22
01:33:05.789 : en:End
`

Отличия

https://rutracker.org/forum/viewtopic.php?t=6253473 - наличие озвучки
https://rutracker.org/forum/viewtopic.php?t=6234430 - наличие озвучки
https://rutracker.org/forum/viewtopic.php?t=6234582 - BDRip 1080p, наличие озвучки

Скриншоты

image image image image image image image image


More at ibit.to
And ibit.uno
And ibit.am
And ibit.ws

Comments

2 weeks ago

greenbeast2015 Зачем одна озвучка в трех вариантах?

2 weeks ago

Nanvel писал(а): 83594239greenbeast2015 Зачем одна озвучка в трех вариантах? 2 другие дороги это 5.1 мво и дубляж) может кому нужен 5.1 под систему, кому дубляж, что больше нравиться, решил не разделять) яп. дороги же добавляют в 2 вариантах)

2 weeks ago

greenbeast2015 На Анилибрии сделали три варианта озвучки или это чья-то кустарщина? Цитата: Аудио 2: FLAC, 48.0 kHz, 2ch, 493 kb/s Язык Русский (в составе контейнера) ; Озвучка 2: Amikiri, Hector, Hekomi, Sharon [Anilibria] MVO Аудио 3: FLAC, 48.0 kHz, 6ch, 1 193 kb/s Язык Русский (в составе контейнера) ; Озвучка 3: Amikiri, Hector, Hekomi, Sharon [Anilibria] MVO 5.1 Аудио 4: FLAC, 48.0 kHz, 6ch, 1 177 kb/s Язык Русский (в составе контейнера) ; Озвучка 4: Amikiri, Hector, Hekomi, Sharon [Anilibria] DUB 5.1 Здесь нет таких обозначений, просто пишут количество каналов, голосность и вид озвучки. Ознакомьтесь наконец с правилами - недооформлено

2 weeks ago

Buka63 писал(а): 83603302greenbeast2015 На Анилибрии сделали три варианта озвучки или это чья-то кустарщина? Цитата: Аудио 2: FLAC, 48.0 kHz, 2ch, 493 kb/s Язык Русский (в составе контейнера) ; Озвучка 2: Amikiri, Hector, Hekomi, Sharon [Anilibria] MVO Аудио 3: FLAC, 48.0 kHz, 6ch, 1 193 kb/s Язык Русский (в составе контейнера) ; Озвучка 3: Amikiri, Hector, Hekomi, Sharon [Anilibria] MVO 5.1 Аудио 4: FLAC, 48.0 kHz, 6ch, 1 177 kb/s Язык Русский (в составе контейнера) ; Озвучка 4: Amikiri, Hector, Hekomi, Sharon [Anilibria] DUB 5.1 Здесь нет таких обозначений, просто пишут количество каналов, голосность и вид озвучки. Ознакомьтесь наконец с правилами - недооформлено Исправил. Да так сделали на Анилибрии)

2 weeks ago

greenbeast2015 писал(а): Да так сделали на Анилибрии) А вам какой смысл лепить в контейнер три одинаковых озвучки? Правилами такое не запрещено, но претензий от здешних пользователей явно будет немеряно.

2 weeks ago

Buka63 писал(а): 83611014 greenbeast2015 писал(а): Да так сделали на Анилибрии) А вам какой смысл лепить в контейнер три одинаковых озвучки? Правилами такое не запрещено, но претензий от здешних пользователей явно будет немеряно. Сделал как было в оригинальном релизе, можно было оставить разве что одну многоголоску и дубляж, кому то нравиться слышать еще японский в моногоголоске, а кто то любит чистый дубляж. Есть выбор качать или нет)

2 weeks ago

greenbeast2015 писал(а): 83611250Есть выбор качать или нет) Выбор есть, когда дорожки внешние, а с дорожками в контейнере без вариантов.

2 weeks ago

greenbeast2015 писал(а): 83611250Есть выбор качать или нет) Buka63 писал(а): 83611283Выбор есть, когда дорожки внешние, в данной раздаче выбора нет.

2 weeks ago

Buka63 писал(а): 83611283Выбор есть siderru писал(а): 83611490выбора нет верная в данном случае формулировка будет выглядеть так выбор: качать или не качать? Вот в чём вопрос...

Files

Stream

Downloading Seeding Sword Art Online: Progressive Movie - Hoshi Naki Yoru no Aria from to 0 peers.
of
0 b/s / ↗0 b/s