• 2
  • 6
Anonymous Downloadondemand_video
  • Swamp.Thing.2019.S01.1080p.WEB.H265 hevc frank
  • 3.2 GB
  • hevcfrank
  • Swamp Thing 2019 S01 1080p WEB H265 hevc frank
  • English
  • HEVC/x265
Warning! Use a VPN When Downloading Torrents!
Your IP Address is ,
Your Internet Provider can see when you download torrents! Hide your IP ADDRESS with a VPN
We strongly recommend Trust.Zone VPN to hide your torrenting. It's FREE!
DOWNLOAD VPN
67%

Swamp Thing: Swamp Thing(2019)

  • Drama Sci-Fi & Fantasy Mystery
  • CDC researcher Abby Arcane investigates what seems to be a deadly swamp-born virus in a small town in Louisiana but she soon discovers that the swamp holds mystical and terrifying secrets. When unexplainable and chilling horrors emerge from the murky marsh, no one is safe.

    expand_more
    English

    Description

    image

    image

    General

    Unique ID                                : 194518242703982074894450776301961931007 (0x9256D9D057EA6626E337A3D29F12E8FF)

    Complete name                            : /home/frank/torrents/rtorrent/Swamp.Thing.2019.S01.1080p.WEB.H265 hevc frank/Swamp.Thing.2019.S01E01.REPACK.1080p.WEBRip.X265 hevc frank.mkv

    Format                                   : Matroska

    Format version                           : Version 4 / Version 2

    File size                                : 435 MiB

    Duration                                 : 59mn 36s

    Overall bit rate                         : 1 020 Kbps

    Encoded date                             : UTC 2019-06-07 19:22:49

    Writing application                      : mkvmerge v34.0.0 ('Sight and Seen') 64-bit

    Writing library                          : libebml v1.3.7 + libmatroska v1.5.0

    Writing frontend                         : StaxRip v2.0.2.0

    Video

    ID                                       : 1

    Format                                   : HEVC

    Format/Info                              : High Efficiency Video Coding

    Format profile                           : Main [email protected]@Main

    Codec ID                                 : V_MPEGH/ISO/HEVC

    Duration                                 : 59mn 36s

    Bit rate                                 : 701 Kbps

    Width                                    : 1 920 pixels

    Height                                   : 872 pixels

    Display aspect ratio                     : 2.2:1

    Frame rate mode                          : Constant

    Frame rate                               : 23.976 (24000/1001) fps

    Color space                              : YUV

    Chroma subsampling                       : 4:2:0

    Bit depth                                : 10 bits

    Bits/(Pixel*Frame)                       : 0.017

    Stream size                              : 299 MiB (69%)

    Writing library                          : x265 3.0_Au+24-4217e691387c:[Windows][GCC 9.1.1][64 bit] 10bit

    Encoding settings                        : rc=abr / bitrate=700 / qcomp=0.60 / qpstep=4 / stats-write=0 / stats-read=2 / cplxblur=20.0 / qblur=0.5 / qpmax=69 / qpmin=0 / no-lossless / no-cu-lossless / no-hevc-aq / no-aq-motion / aq-mode=2 / aq-strength=1.00 / cbqpoffs=0 / crqpoffs=0 / ipratio=1.40 / pbratio=1.30 / psy-rd=2.00 / psy-rdoq=0.00 / deblock=0:0 / ref=3 / limit-refs=3 / no-limit-modes / bframes=4 / b-adapt=0 / bframe-bias=0 / b-pyramid / no-b-intra / weightp / no-weightb / keyint=250 / min-keyint=23 / rc-lookahead=15 / gop-lookahead=0 / scenecut=40 / scenecut-bias=0.05 / ctu=64 / min-cu-size=8 / me=1 / subme=2 / merange=57 / rd=2 / no-rd-refine / no-ssim-rd / dynamic-rd=0.00 / rdoq-level=0 / rdpenalty=0 / cutree / sao / no-limit-sao / no-sao-non-deblock / no-rect / no-amp / open-gop / max-tu-size=32 / tu-inter-depth=1 / tu-intra-depth=1 / limit-tu=0 / qg-size=32 / wpp / no-pmode / no-pme / no-psnr / no-ssim / no-tskip / no-constrained-intra / strong-intra-smoothing / max-merge=2 / nr-intra=0 / nr-inter=0 / input-csp=1 / input-res=1920x872 / interlace=0 / total-frames=85747 / level-idc=51 / high-tier=1cpuid=1111039 / frame-threads=2 / numa-pools=4 / log-level=2 / uhd-bd=0 / lookahead-slices=5 / radl=0 / no-splice / no-intra-refresh / signhide / temporal-mvp / no-analyze-src-pics / no-early-skip / rskip / fast-intra / no-tskip-fast / no-splitrd-skip / zone-count=0 / no-strict-cbr / no-rc-grain / no-const-vbv / no-allow-non-conformance / no-repeat-headers / annexb / no-aud / no-hrd / info / hash=0 / no-temporal-layers / sar=0 / overscan=0 / videoformat=5 / range=0 / colorprim=2 / transfer=2 / colormatrix=2 / chromaloc=0 / display-window=0 / max-cll=0,0 / min-luma=0 / max-luma=1023 / log2-max-poc-lsb=8 / vui-timing-info / vui-hrd-info / slices=1 / no-opt-qp-pps / no-opt-ref-list-length-pps / no-multi-pass-opt-rps / no-opt-cu-delta-qp / no-hdr / no-hdr-opt / no-dhdr10-opt / no-idr-recovery-sei / analysis-reuse-level=5 / scale-factor=0 / refine-intra=0 / refine-inter=0 / refine-mv=0 / refine-ctu-distortion=0 / ctu-info=0 / no-lowpass-dct / refine-analysis-type=0 / copy-pic=1 / max-ausize-factor=1.0 / no-dynamic-refine / no-single-sei / no-svt / qp-adaptation-range=1.00

    Default                                  : Yes

    Forced                                   : No

    Audio

    ID                                       : 2

    Format                                   : Opus

    Codec ID                                 : A_OPUS

    Duration                                 : 59mn 36s

    Bit rate                                 : 316 Kbps

    Channel(s)                               : 6 channels

    Channel positions                        : Front: L C R, Rear: L R, LFE

    Sampling rate                            : 48.0 KHz

    Frame rate                               : 50.000 fps (960 spf)

    Compression mode                         : Lossy

    Delay relative to video                  : 17ms

    Stream size                              : 135 MiB (31%)

    Language                                 : English

    Default                                  : No

    Forced                                   : No

    Text

    ID                                       : 3

    Format                                   : UTF-8

    Codec ID                                 : S_TEXT/UTF8

    Codec ID/Info                            : UTF-8 Plain Text

    Duration                                 : 58mn 11s

    Bit rate                                 : 53 bps

    Count of elements                        : 844

    Stream size                              : 22.8 KiB (0%)

    Language                                 : English

    Default                                  : Yes

    Forced                                   : No


    More at ibit.to
    And ibit.uno
    And ibit.ws

    Reviews

    I thought I'd like it, they're doing the full on gore and sweary script. But the Acting is a bit shoddy and the general script writing is just plain boring. It apparently got cancelled after the first episode!?

    Comments

    Files

    Swamp.Thing.2019.S01E01.REPACK.1080p.WEBRip.X265 hevc frank.mkv 435 MB
    Swamp.Thing.2019.S01E02.1080p.WEBRip.X265 hevc frank.mkv 376 MB
    Swamp.Thing.2019.S01E03.1080p.WEBRip.X265 hevc frank.mkv 357 MB
    Swamp.Thing.2019.S01E05.iNTERNAL.1080p.WEB.H265 hevc frank.mkv 391 MB
    Swamp.Thing.2019.S01E06.iNTERNAL.1080p.WEB.H265 hevc frank.mkv 310 MB
    Swamp.Thing.2019.S01E07.iNTERNAL.1080p.WEB.H265 hevc frank.mkv 328 MB
    Swamp.Thing.2019.S01E08.INTERNAL.1080p.WEB.H265 hevc frank.mkv 338 MB
    Swamp.Thing.2019.S01E09.INTERNAL.1080p.WEB.H265 hevc frank.mkv 335 MB
    Swamp.Thing.2019.S01E10.INTERNAL.1080p.WEB.H265 hevc frank.mkv 394 MB

    Stream

    Downloading Seeding Swamp.Thing.2019.S01.1080p.WEB.H265 hevc frank from to 0 peers.
    of
    0 b/s / ↗0 b/s