• -
  • -
  • done
Download
  • Supergrass - Glastonbury 2022 [2022, Rock, Britpop, WEB-DLRip, 1080p, 50fps]
  • 4.3 GB
  • pedrokronbauer
  • Supergrass Glastonbury 2022 Rock Britpop WEB DLRip 1080p 50fps
  • Зарубежный рок (HD Video)

Description

Supergrass - Glastonbury 2022 [2022, Rock, Britpop, WEB-DLRip, 1080p, 50fps]

image

Жанр : Rock, Britpop, Alt.Rock

Продолжительность : 00:55:48

Год выпуска : 2022

Описание : Supergrass - Live at Glastonbury Festival 2022

Треклист :
1. Caught by the Fuzz
2. Mansize Rooster
3. Mary
4. Richard III
5. Late in the Day
6. She's So Loose
7. Moving
8. St. Petersburg
9. Alright
10. Sun Hits the Sky
11. Lenny
12. Strange Ones
13. Pumping on Your Stereo

Качество : Web-DLRip

Разрешение видео/развертка : 1080p

Контейнер : MP4

Видео кодек : H.264

Аудио кодек : AAC

Видео : MPEG4 Video (H264) 1920x1080 50fps 10834kbps

Аудио : AAC 48000Hz stereo 128kbps

Отчёт MediaInfo / BDInfo

`
General
Format : MPEG-4
Format profile : Base Media
Codec ID : isom
File size : 4.28 GiB
Duration : 55mn 48s
Overall bit rate mode : Variable
Overall bit rate : 11.0 Mbps
Collection : Glastonbury: 2022
Season : 2022
Album : Glastonbury: 2022
Album/Performer : BBC TV
Part/Position : 2022
Track name : Supergrass
Grouping : Music,Rock & Indie,Performances & Events
Performer : BBC Music
Composer : BBC iPlayer
Genre : Music
ContentType : TV Show
Description : Much anticipated Worthy Farm return for the beloved Britpop veterans.
Recorded date : UTC 2022-06-25 18:23:11
Tagged date : UTC 2022-06-25 18:23:17
Copyright : 2022 British Broadcasting Corporation, all rights reserved
Cover : Yes
Lyrics : Much anticipated Worthy Farm return for the beloved Britpop veterans. / / PLAY: https://www.bbc.co.uk/iplayer/episode/p0c7zvvj / / INFO: https://www.bbc.co.uk/programmes/p0c7zvvj
Comment : Much anticipated Worthy Farm return for the beloved Britpop veterans.
HDVideo : Yes
Part_ID : p0c7zvvj
TVNetworkName : BBC Music
LongDescription : Much anticipated Worthy Farm return for the beloved Britpop veterans. / / PLAY: https://www.bbc.co.uk/iplayer/episode/p0c7zvvj / / INFO: https://www.bbc.co.uk/programmes/p0c7zvvj

Video
ID : 1
Format : AVC
Format/Info : Advanced Video Codec
Format profile : [email protected]
Format settings, CABAC : Yes
Format settings, ReFrames : 4 frames
Codec ID : avc1
Codec ID/Info : Advanced Video Coding
Duration : 55mn 48s
Bit rate mode : Variable
Bit rate : 10.8 Mbps
Maximum bit rate : 12.0 Mbps
Width : 1 920 pixels
Height : 1 080 pixels
Display aspect ratio : 16:9
Frame rate mode : Constant
Frame rate : 50.000 fps
Color space : YUV
Chroma subsampling : 4:2:0
Bit depth : 8 bits
Scan type : Progressive
Bits/(Pixel*Frame) : 0.104
Stream size : 4.22 GiB (99%)
Color primaries : BT.709
Transfer characteristics : BT.709
Matrix coefficients : BT.709
Color range : Limited

Audio
ID : 2
Format : AAC
Format/Info : Advanced Audio Codec
Format profile : LC
Codec ID : 40
Duration : 55mn 48s
Bit rate mode : Constant
Bit rate : 128 Kbps
Channel(s) : 2 channels
Channel positions : Front: L R
Sampling rate : 48.0 KHz
Compression mode : Lossy
Stream size : 51.1 MiB (1%)
Language : English
`

Скриншоты

image

image

image

image

image

image

image

image

image

image


More at ibit.to
And ibit.uno
And ibit.am
And ibit.ws

Comments

Files

Stream

Downloading Seeding Supergrass - Glastonbury 2022 [2022, Rock, Britpop, WEB-DLRip, 1080p, 50fps] from to 0 peers.
of
0 b/s / ↗0 b/s