• 0
  • 0
  • done
Sponsored Download
  • Sunburst - Sunburst (1980, 2016, Victor-Japan)
  • 324 MB
  • fiks22
  • Sunburst 1980 2016 Victor Japan
  • Зарубежный джаз

Description

Sunburst - Sunburst

image

Жанр : Fusion, Jazz-Funk

Носитель : CD

Страна-производитель диска (релиза) : Япония

Год издания : 2016

Издатель (лейбл) : Victor Musical Industries

Номер по каталогу : VICJ-77023

Аудиокодек : FLAC (*.flac)

Тип рипа : tracks+.cue

Продолжительность : 00:45:52

Источник : sunshinefeltlikerain

Наличие сканов в содержимом раздачи : нет

Треклист :
01. Sunburst (Kishida) - 4:11
02. Cool K. (Kishida) - 4:19
03. Gentle Talk (Sawada) - 7:46
04. Maiden Voyage (Hancock) - 5:59
05. Circus Time (Watanabe) - 6:40
06. Mysterious Vibes (Killgo) - 6:18
07. Burnin' (Kishida) - 5:05
08. Don't Say Goodnight (Isley Brothers) - 5:34

Лог создания рипа

`Exact Audio Copy V1.1 from 23. June 2015

EAC extraction logfile from 9. April 2017, 1:08

Sunburst / Sunburst

Used drive : ATAPI iHAS124 C Adapter: 1 ID: 0

Read mode : Secure
Utilize accurate stream : Yes
Defeat audio cache : Yes
Make use of C2 pointers : No

Read offset correction : 6
Overread into Lead-In and Lead-Out : No
Fill up missing offset samples with silence : Yes
Delete leading and trailing silent blocks : No
Null samples used in CRC calculations : Yes
Used interface : Native Win32 interface for Win NT & 2000
Gap handling : Appended to previous track

Used output format : User Defined Encoder
Selected bitrate : 1024 kBit/s
Quality : High
Add ID3 tag : No
Command line compressor : C:Program Files (x86)Exact Audio CopyFLACFLAC.EXE
Additional command line options : -8 -e -V -T "ARTIST=%artist%" -T "TITLE=%src%" -T "ALBUM=%albumsrc%" -T "DATE=%year%" -T "TRACKNUMBER=%tracknr%" -T "GENRE=%genre%" -T "PERFORMER=%albuminterpret%" -T "COMPOSER=%composer%" %haslyrics%--tag-from-file=LYRICS="%lyricsfile%"%haslyrics% -T "ALBUMARTIST=%albumartist%" -T "DISCNUMBER=%cdnumber%" -T "TOTALDISCS=%totalcds%" -T "TOTALTRACKS=%numtracks%" -T "COMMENT=%comment%" %source% -o %dest%

TOC of the extracted CD

Track | Start | Length | Start sector | End sector


1 | 0:00.00 | 4:10.44 | 0 | 18793
2 | 4:10.44 | 4:19.05 | 18794 | 38223
3 | 8:29.49 | 7:45.60 | 38224 | 73158
4 | 16:15.34 | 5:59.32 | 73159 | 100115
5 | 22:14.66 | 6:40.19 | 100116 | 130134
6 | 28:55.10 | 6:18.22 | 130135 | 158506
7 | 35:13.32 | 5:05.18 | 158507 | 181399
8 | 40:18.50 | 5:34.27 | 181400 | 206476

Track 1

Filename E:RipsSunburst - Sunburst (1980) {2016 Remaster VICJ-77023} [FLAC]01 - Sunburst.wav

Pre-gap length 0:00:02.00

Peak level 98.5 %
Extraction speed 5.5 X
Track quality 100.0 %
Test CRC 71A38DBB
Copy CRC 71A38DBB
Accurately ripped (confidence 1) EA67D55F
Copy OK

Track 2

Filename E:RipsSunburst - Sunburst (1980) {2016 Remaster VICJ-77023} [FLAC]02 - Cool K..wav

Pre-gap length 0:00:00.98

Peak level 98.5 %
Extraction speed 6.1 X
Track quality 100.0 %
Test CRC 28FC2BC2
Copy CRC 28FC2BC2
Accurately ripped (confidence 1) 5FC897EB
Copy OK

Track 3

Filename E:RipsSunburst - Sunburst (1980) {2016 Remaster VICJ-77023} [FLAC]03 - Gentle Talk.wav

Pre-gap length 0:00:01.41

Peak level 98.5 %
Extraction speed 6.6 X
Track quality 99.9 %
Test CRC 418C2F28
Copy CRC 418C2F28
Accurately ripped (confidence 1) C3A45D53
Copy OK

Track 4

Filename E:RipsSunburst - Sunburst (1980) {2016 Remaster VICJ-77023} [FLAC]04 - Maiden Voyage.wav

Pre-gap length 0:00:01.12

Peak level 98.5 %
Extraction speed 7.9 X
Track quality 100.0 %
Test CRC F6447820
Copy CRC F6447820
Accurately ripped (confidence 1) 569E29E7
Copy OK

Track 5

Filename E:RipsSunburst - Sunburst (1980) {2016 Remaster VICJ-77023} [FLAC]05 - Circus Time.wav

Pre-gap length 0:00:01.80

Peak level 98.5 %
Extraction speed 8.6 X
Track quality 100.0 %
Test CRC 877D38FA
Copy CRC 877D38FA
Accurately ripped (confidence 1) 7380C9C0
Copy OK

Track 6

Filename E:RipsSunburst - Sunburst (1980) {2016 Remaster VICJ-77023} [FLAC]06 - Mysterious Vibes.wav

Pre-gap length 0:00:02.56

Peak level 98.5 %
Extraction speed 9.2 X
Track quality 100.0 %
Test CRC 9F35AA5B
Copy CRC 9F35AA5B
Accurately ripped (confidence 1) 8D250DAC
Copy OK

Track 7

Filename E:RipsSunburst - Sunburst (1980) {2016 Remaster VICJ-77023} [FLAC]07 - Burnin'.wav

Pre-gap length 0:00:00.88

Peak level 98.5 %
Extraction speed 9.5 X
Track quality 100.0 %
Test CRC 5261993D
Copy CRC 5261993D
Accurately ripped (confidence 1) F65D4205
Copy OK

Track 8

Filename E:RipsSunburst - Sunburst (1980) {2016 Remaster VICJ-77023} [FLAC]08 - Don't Say Goodnight.wav

Pre-gap length 0:00:01.06

Peak level 98.5 %
Extraction speed 9.9 X
Track quality 100.0 %
Test CRC 3A66E1F3
Copy CRC 3A66E1F3
Accurately ripped (confidence 1) 95568EAC
Copy OK

All tracks accurately ripped

No errors occurred

End of status report

---- CUETools DB Plugin V2.1.6

[CTDB TOCID: JLdqKtnHOk8NxVwNanzrXBmzs-] found
Submit result: JLdqKtnHOk8NxVwNanzrXBmzs- has been confirmed
Track | CTDB Status
1 | (5/5) Accurately ripped
2 | (5/5) Accurately ripped
3 | (5/5) Accurately ripped
4 | (5/5) Accurately ripped
5 | (5/5) Accurately ripped
6 | (5/5) Accurately ripped
7 | (5/5) Accurately ripped
8 | (5/5) Accurately ripped

==== Log checksum 37CB8C180E458F5DC321B3ECEE8E3635EB6BF0C2F7005BF776CFE6C2C41045B9 ==== `

Содержание индексной карты (.CUE)

REM GENRE Jazz REM DATE 1980 REM DISCID 590AC108 REM COMMENT "ExactAudioCopy v1.1" CATALOG 4988002718153 PERFORMER "Sunburst" TITLE "Sunburst" FILE "01 - Sunburst.wav" WAVE TRACK 01 AUDIO TITLE "Sunburst" PERFORMER "Sunburst" ISRC JPVI01616130 INDEX 01 00:00:00 TRACK 02 AUDIO TITLE "Cool K." PERFORMER "Sunburst" ISRC JPVI01616140 INDEX 00 04:09:45 FILE "02 - Cool K..wav" WAVE INDEX 01 00:00:00 TRACK 03 AUDIO TITLE "Gentle Talk" PERFORMER "Sunburst" ISRC JPVI01616150 INDEX 00 04:17:49 FILE "03 - Gentle Talk.wav" WAVE INDEX 01 00:00:00 TRACK 04 AUDIO TITLE "Maiden Voyage" PERFORMER "Sunburst" ISRC JPVI01616160 INDEX 00 07:44:51 FILE "04 - Maiden Voyage.wav" WAVE INDEX 01 00:00:00 TRACK 05 AUDIO TITLE "Circus Time" PERFORMER "Sunburst" ISRC JPVI01616170 INDEX 00 05:57:47 FILE "05 - Circus Time.wav" WAVE INDEX 01 00:00:00 TRACK 06 AUDIO TITLE "Mysterious Vibes" PERFORMER "Sunburst" ISRC JPVI01616180 INDEX 00 06:37:52 FILE "06 - Mysterious Vibes.wav" WAVE INDEX 01 00:00:00 TRACK 07 AUDIO TITLE "Burnin'" PERFORMER "Sunburst" ISRC JPVI01616190 INDEX 00 06:17:31 FILE "07 - Burnin'.wav" WAVE INDEX 01 00:00:00 TRACK 08 AUDIO TITLE "Don't Say Goodnight" PERFORMER "Sunburst" ISRC JPVI01616200 INDEX 00 05:04:13 FILE "08 - Don't Say Goodnight.wav" WAVE INDEX 01 00:00:00

Отчет CUETools

`[CUETools log; Date: 10.06.2019 1:01:25; Version: 2.1.6]
[CTDB TOCID: JLdqKtnHOk8NxVwNanzrXBmzs-] found.
Track | CTDB Status
1 | (7/7) Accurately ripped
2 | (7/7) Accurately ripped
3 | (7/7) Accurately ripped
4 | (7/7) Accurately ripped
5 | (7/7) Accurately ripped
6 | (7/7) Accurately ripped
7 | (7/7) Accurately ripped
8 | (7/7) Accurately ripped
[AccurateRip ID: 000dd63c-005dc531-590ac108] found.
Track [CRC | V2] Status
01 e0e4fedb|ea67d55f Accurately ripped
02 404f79e9|5fc897eb Accurately ripped
03 845f395c|c3a45d53 Accurately ripped
04 6934afa7|569e29e7 Accurately ripped
05 6fa64902|7380c9c0 Accurately ripped
06 546c9c34|8d250dac Accurately ripped
07 5b97e46d|f65d4205 Accurately ripped
08 1e30688a|95568eac Accurately ripped

Track Peak [CRC32] [W/O NULL] [LOG]
-- 98,5 [3C0CC8D9] [1FEC3D12]
01 98,5 [71A38DBB] [E350838B] CRC32
02 98,5 [28FC2BC2] [56A5243F] CRC32
03 98,5 [418C2F28] [E8FCB5BC] CRC32
04 98,5 [F6447820] [12479396] CRC32
05 98,5 [877D38FA] [546AB10A] CRC32
06 98,5 [9F35AA5B] [1381D03F] CRC32
07 98,5 [5261993D] [3B4FA2CC] CRC32
08 98,5 [3A66E1F3] [D871A16F] CRC32 `

Состав

Toshiyuki Honda - alto saxophone, soprano saxophone
Kazumi Watanabe, Yuji Karaki - guitar
Makoto Terashita, Kazushi Makiguchi - keyboards
Yukio Kodaira - bass
Keiji Kishida - drums
with guest players:
Shunzo Ohno - trumpet (#3)
Seiichi Nakamura - tenor saxophone (#8)
Shuya Sato - soprano saxophone (#6)
Masao Nakajima - keyboards (#1-4,7,8)
Hideo Kawahara - bass (#1,3,8)
Tatsuji Yokoyama - percussion (#1,3)
Jada - background vocals (#3,8)

Recorded at Victor Studio, Sound Inn, Tamco Studio on August 7-25, 1980.


More at ibit.to
And ibit.uno
And ibit.ws

Comments

Files

Sunburst - Sunburst (1980, 2016, Victor-Japan)Artworkfront.jpg 105 kB
Sunburst - Sunburst (1980, 2016, Victor-Japan)03 - Gentle Talk.flac 54 MB
Sunburst - Sunburst (1980, 2016, Victor-Japan)05 - Circus Time.flac 48 MB
Sunburst - Sunburst (1980, 2016, Victor-Japan)04 - Maiden Voyage.flac 42 MB
Sunburst - Sunburst (1980, 2016, Victor-Japan)06 - Mysterious Vibes.flac 40 MB
Sunburst - Sunburst (1980, 2016, Victor-Japan)08 - Don't Say Goodnight.flac 39 MB
Sunburst - Sunburst (1980, 2016, Victor-Japan)07 - Burnin'.flac 38 MB
Sunburst - Sunburst (1980, 2016, Victor-Japan)02 - Cool K..flac 33 MB
Sunburst - Sunburst (1980, 2016, Victor-Japan)01 - Sunburst.flac 31 MB
Sunburst - Sunburst (1980, 2016, Victor-Japan)folder.jpg 52 kB
Sunburst - Sunburst (1980, 2016, Victor-Japan)Sunburst - Sunburst.log 11 kB
Sunburst - Sunburst (1980, 2016, Victor-Japan)Sunburst.cue 1.5 kB
Sunburst - Sunburst (1980, 2016, Victor-Japan)Sunburst.accurip 1.4 kB
Sunburst - Sunburst (1980, 2016, Victor-Japan)Sunburst - Sunburst.m3u 188 B

Stream

Downloading Seeding Sunburst - Sunburst (1980, 2016, Victor-Japan) from to 0 peers.
of
0 b/s / ↗0 b/s