• 12
  • 6
  • done
Downloadondemand_video
77%

Space Jam: A New Legacy (2021)

  • Animation Comedy Science Fiction Family Adventure Mystery Fantasy
  • When LeBron and his young son Dom are trapped in a digital space by a rogue A.I., LeBron must get them home safe by leading Bugs, Lola Bunny and the whole gang of notoriously undisciplined Looney Tunes to victory over the A.I.'s digitized champions on the court. It's Tunes versus Goons in the highest-stakes challenge of his life.

    expand_more
    English
  • $161,900,000
  • Description

    image

    https://www.imdb.com/title/tt3554046/

    image

    image

    image

    image

    Video

    ID                                       : 1

    Format                                   : AVC

    Format/Info                              : Advanced Video Codec

    Format profile                           : [email protected]

    Format settings                          : CABAC / 4 Ref Frames

    Format settings, CABAC                   : Yes

    Format settings, Reference frames        : 4 frames

    Codec ID                                 : V_MPEG4/ISO/AVC

    Duration                                 : 1 h 57 min

    Bit rate                                 : 1 983 kb/s

    Width                                    : 1 280 pixels

    Height                                   : 720 pixels

    Display aspect ratio                     : 16:9

    Frame rate mode                          : Constant

    Frame rate                               : 23.976 (24000/1001) FPS

    Color space                              : YUV

    Chroma subsampling                       : 4:2:0

    Bit depth                                : 8 bits

    Scan type                                : Progressive

    Bits/(Pixel*Frame)                       : 0.090

    Stream size                              : 1.62 GiB (91%)

    Language                                 : English

    Default                                  : Yes

    Forced                                   : No

    Color range                              : Limited

    Color primaries                          : BT.709

    Transfer characteristics                 : BT.709

    Matrix coefficients                      : BT.709

    Audio

    ID                                       : 2

    Format                                   : AAC LC

    Format/Info                              : Advanced Audio Codec Low Complexity

    Codec ID                                 : A_AAC-2

    Duration                                 : 1 h 57 min

    Bit rate                                 : 192 kb/s

    Channel(s)                               : 2 channels

    Channel layout                           : L R

    Sampling rate                            : 48.0 kHz

    Frame rate                               : 46.875 FPS (1024 SPF)

    Compression mode                         : Lossy

    Stream size                              : 159 MiB (9%)

    Language                                 : Hindi

    Default                                  : Yes

    Forced                                   : No


    More at ibit.to
    And ibit.uno
    And ibit.am
    And ibit.ws

    Reviews

    A very creative alternate to the original. The story line is all original and updated with current times. Lots of great puns and looney jokes. Better than what I expected. However nobody can be Michael Jordan

    Pros: - Kong and the Iron Giant gave eachother a fist bump! - It featured many characters from Warner Bros. - Porky Pig roasting Al-G Rhythm in a rap battle - Gabriel Iglesias and Zendaya provided the voices of Speedy Gonzales and Lola Bunny, respectively - It was better than the first film - LeBron James! - There could a be a possible Space Jam spin off titled Wonder Bunny! Cons: - They never showed the Pepe Le Pew scene. - I was hoping the Tune Squad would play against villains of Warner Bros.; Wicked Witch of the West, Sauron, Pennywise/It, Agent Smith... - I was expecting a surprise twist, where Al-G Rhythm turns out not to be a bad guy but was actually helping LeBron understand his son more. The writers should've done more. - Cringing moments

    Comments

    Files

    Space Jam a New Legacy (2021) [Hindi Dub] 720p WEB-DLRip Saicord.mkv 1.8 GB

    Stream

    Downloading Seeding Space Jam a New Legacy (2021) [Hindi Dub] 720p WEB-DLRip Saicord.mkv from to 0 peers.
    of
    0 b/s / ↗0 b/s