• -
  • 66
  • 63
Anonymous Download
  • Simple Minds - Life In A Day (1979) Flac
  • 273 MB
  • was95was
  • Simple Minds Life Day 1979 Flac
  • English
  • Lossless
Warning! Use a VPN When Downloading Torrents!
Your IP Address is ,
Your Internet Provider can see when you download torrents! Hide your IP ADDRESS with a VPN
We strongly recommend Trust.Zone VPN to hide your torrenting. It's FREE!
DOWNLOAD VPN

Description

image

Quality-Lossless

Release-1979

Duration-00:43:21

File Size-286.2 MB

Genre-Rock

Cover Size-1200px

----------------------------------------------------------------------------------------------
Analyzed: Life In A Day / Artist: Simple Minds


DR Peak RMS Duration Title [codec]

DR13 -1.64 dB -18.23 dB 3:43 01 - Someone [flac]
DR13 -2.68 dB -18.22 dB 4:05 02 - Life In A Day [flac]
DR13 -3.16 dB -19.76 dB 2:46 03 - Sad Affair [flac]
DR12 -4.45 dB -19.94 dB 2:52 04 - All For You [flac]
DR14 -3.01 dB -20.20 dB 8:00 05 - Pleasantly Disturbed [flac]
DR13 -3.57 dB -19.38 dB 3:33 06 - No Cure [flac]
DR14 -1.71 dB -20.51 dB 4:34 07 - Chelsea Girl [flac]
DR13 -5.10 dB -21.71 dB 3:46 08 - Wasteland [flac]
DR13 -3.15 dB -19.18 dB 3:37 09 - Destiny [flac]

DR13 -4.73 dB -19.99 dB 6:19 10 - Murder Story [flac]

Number of files: 10

Official DR value: DR13

Sampling rate: 44100 Hz

Average bitrate: 886kbs
Bits per sample: 16 bit


More at ibit.to
And ibit.uno
And ibit.ws

Comments

4 months ago

stuck at 99.9% anyone seeding ?

4 months ago

hi it is the cover and the txt file that can't finish only if i create a new torrent songs all good sorry.

Files

01 - Someone.flac 24 MB
02 - Life In A Day.flac 28 MB
03 - Sad Affair.flac 19 MB
04 - All For You.flac 17 MB
05 - Pleasantly Disturbed.flac 47 MB
06 - No Cure.flac 24 MB
07 - Chelsea Girl.flac 29 MB
08 - Wasteland.flac 24 MB
09 - Destiny.flac 22 MB
10 - Murder Story.flac 38 MB
cover.jpg 458 kB
dr14.txt 1.3 kB

Stream

Downloading Seeding Simple Minds - Life In A Day (1979) Flac from to 0 peers.
of
0 b/s / ↗0 b/s