• -
  • -
  • done
ondemand_video
  • Semeyiinoe.Delo.1984.WEB-DLRip
  • 1.6 GB
  • vitolinform
  • Semeyiinoe Delo 1984 WEB DLRip
  • Зарубежное кино
75%

A Family Affair (1984)

  • Drama
  • To get their parents back together, two clever siblings team up with their grandpa in a series of mischievous antics.

    expand_more

    Description

    Семейное дело
    Quan jia fu / A Family Affair

    image

    Страна : Гонконг

    Студия : Cinema City Film Productions

    Жанр : Комедия, драма

    Год выпуска : 1984

    Продолжительность : 01:36:49

    Перевод : Одноголосый закадровый |

    Виктор Береговых

    Субтитры : английские

    Оригинальная аудиодорожка : китайский

    Режиссер : Дин Шек / Dean Shek

    В ролях : Хелен Чан, Оливия Чэн, Сэм Хуэй, Дин Шек, Дженни Цан, Мелвин Вон

    Описание :
    Чён (Сэм Хуэй) и Нэнси (Оливия Чэн) еще женаты, но уже не живут вместе – у них непримиримые разногласия. Настолько непримиримые, что они «поделили» детей – Томми живет с отцом, а Мэйси с матерью – и начали встречаться с другими людьми – за Нэнси ухаживает импозантный Джордж (Мелвин Вон), а Чён пытается построить счастье с моделью по имени Линда (Дженни Цен). Но детей и их дедушку (Дин Шек) такое не устраивает, и они все время пытаются свести родителей вместе.


    | КиноПоиск | IMDb | Скачать сэмпл | исходник для рипа WEB-DL (1080p) |


    Заказ перевода и озвучивания: vitolinform


    Качество видео : WEB-DLRip

    Формат видео : AVI

    Видео : 720x400 (16:9), 24 fps, XviD build 67 ~1768 kbps avg, 0.256 bit/pixel

    Аудио 1 : 48 kHz, AC3 Dolby Digital, 2/0 (L,R) ch, ~192 kbps | Одноголосый закадровый (Виктор Береговых)

    Аудио 2 : 48 kHz, AC3 Dolby Digital, 2/0 (L,R) ch, ~192 kbps | Китайский (Cantonese)

    Формат субтитров : softsub (SRT)

    MediaInfo

    `Semeyiinoe.Delo.1984.WEB-DLRipSemeyiinoe.Delo.1984.WEB-DLRip.avi
    Формат : AVI
    Формат/Информация : Audio Video Interleave
    Размер файла : 1,46 Гбайт
    Продолжительность : 1 ч. 36 м.
    Общий поток : 2166 Кбит/сек
    Название фильма : Семейное дело / Quan jia fu / A Family Affair (1984) WEB-DLRip
    Режиссёр : Дин Шек / Dean Shek
    Жанр : Комедия, драма
    Программа кодирования : VirtualDubMod 1.5.10.2 (build 2542/release)
    Формат оригинала/Имя : Художественный фильм
    Авторское право : Гонконг, Cinema City Film Productions
    Примечание : Rip by vitolinform

    Видео
    Идентификатор : 0
    Формат : MPEG-4 Visual
    Профиль формата : Advanced [email protected]
    Настройки формата : BVOP2
    Параметр BVOP формата : 2
    Параметр QPel формата : Нет
    Параметр GMC формата : Без точки перехода
    Параметр матрицы формата : Default (MPEG)
    Идентификатор кодека : XVID
    Идентификатор кодека/Подсказка : XviD
    Продолжительность : 1 ч. 36 м.
    Битрейт : 1768 Кбит/сек
    Ширина : 720 пикселей
    Высота : 400 пикселей
    Соотношение сторон : 16:9
    Частота кадров : 24,000 кадра/сек
    Цветовое пространство : YUV
    Субдискретизация насыщенности : 4:2:0
    Битовая глубина : 8 бит
    Тип развёртки : Прогрессивная
    Метод сжатия : С потерями
    Бит/(Пиксели*Кадры) : 0.256
    Размер потока : 1,20 Гбайт (82%)
    Библиотека кодирования : XviD 67

    Аудио #1
    Идентификатор : 1
    Формат : AC-3
    Формат/Информация : Audio Coding 3
    Коммерческое название : Dolby Digital
    Идентификатор кодека : 2000
    Продолжительность : 1 ч. 36 м.
    Вид битрейта : Постоянный
    Битрейт : 192 Кбит/сек
    Каналы : 2 канала
    ChannelLayout : L R
    Частота : 48,0 КГц
    Частота кадров : 31,250 кадров/сек (1536 SPF)
    Битовая глубина : 16 бит
    Метод сжатия : С потерями
    Размер потока : 133 Мбайт (9%)
    Выравнивание : Разделение по промежуткам
    Продолжительность промежутка : 42 мс. (1,00 видеокадр)
    Время предзагрузки промежутка : 500 мс.
    Заголовок : Russian (VO Виктор Береговых)
    ServiceKind/String : Complete Main

    Аудио #2
    Идентификатор : 2
    Формат : AC-3
    Формат/Информация : Audio Coding 3
    Коммерческое название : Dolby Digital
    Идентификатор кодека : 2000
    Продолжительность : 1 ч. 36 м.
    Вид битрейта : Постоянный
    Битрейт : 192 Кбит/сек
    Каналы : 2 канала
    ChannelLayout : L R
    Частота : 48,0 КГц
    Частота кадров : 31,250 кадров/сек (1536 SPF)
    Битовая глубина : 16 бит
    Метод сжатия : С потерями
    Размер потока : 133 Мбайт (9%)
    Выравнивание : Разделение по промежуткам
    Продолжительность промежутка : 42 мс. (1,00 видеокадр)
    Время предзагрузки промежутка : 500 мс.
    Заголовок : Cantonese (Original)
    ServiceKind/String : Complete Main

    Общее
    Полное имя : C:Semeyiinoe.Delo.1984.WEB-DLRipSemeyiinoe.Delo.1984.WEB-DLRip_eng.srt
    Формат : SubRip
    Размер файла : 85,8 Кбайт

    Текст
    Формат : SubRip
    Метод сжатия : Без потерь `

    Скриншот c названием фильма

    image

    Скриншоты

    image image image image image image


    More at ibit.to
    And ibit.uno
    And ibit.am
    And ibit.ws

    Reviews

    Comments

    Files

    Semeyiinoe.Delo.1984.WEB-DLRipSemeyiinoe.Delo.1984.WEB-DLRip.avi 1.6 GB
    Semeyiinoe.Delo.1984.WEB-DLRipSemeyiinoe.Delo.1984.WEB-DLRip_eng.srt 88 kB

    Stream

    Downloading Seeding Semeyiinoe.Delo.1984.WEB-DLRip from to 0 peers.
    of
    0 b/s / ↗0 b/s