• -
  • 7
  • done
Download
  • Ronja Rövardotter (Sanzoku no Musume Ronja) (1080p) (BDRip) (Dual Audio)
  • 39 GB
  • hchcsen
  • Ronja vardotter Sanzoku Musume 1080p BDRip Dual Audio
  • Anime - English-translated

Description

Video, Subs and Jp audio from SCP-2223 English audio from a torrent found on TPB General Unique ID : 209146415060528498586108833234519872268 (0x9D582264EF1DBC732E2E184C7978530C) Complete name : W:UploadRonja, the Robber's Daughter (2014)Ronja, the Robber's Daughter (2014) S01E01 Born in the Storm.mkv Format : Matroska Format version : Version 4 / Version 2 File size : 1.56 GiB Duration : 25 min 3 s Overall bit rate mode : Variable Overall bit rate : 8 896 kb/s Movie name : [SCP-2223] Sanzoku no Musume Ronja - 01 [Blu-ray 1080p h264 FLAC] Encoded date : UTC 2019-06-24 15:02:58 Writing application : mkvmerge v27.0.0 ('Metropolis') 32-bit Writing library : libebml v1.3.6 + libmatroska v1.4.9 Attachments : nyala.TTF / AlbertaRegular.ttf / ALBR85W.TTF / Aller.ttf / AllerBdIt.ttf / Bolton0.ttf / Boltonsans.ttf / DerringerAntique-Xbold.ttf / DURALITH.ttf

Video ID : 1 Format : AVC Format/Info : Advanced Video Codec Format profile : [email protected] Format settings : CABAC / 10 Ref Frames Format settings, CABAC : Yes Format settings, Reference fra : 10 frames Codec ID : VMPEG4/ISO/AVC Duration : 25 min 2 s Bit rate : 8 053 kb/s Width : 1 920 pixels Height : 1 080 pixels Display aspect ratio : 16:9 Frame rate mode : Constant Frame rate : 23.976 (24000/1001) FPS Color space : YUV Chroma subsampling : 4:2:0 Bit depth : 8 bits Scan type : Progressive Bits/(Pixel*Frame) : 0.162 Stream size : 1.41 GiB (90%) Writing library : x264 core 152 r2851+45 9658d1a 7mod [[email protected] X8664] Encoding settings : cabac=1 / ref=10 / deblock=1:0:0 / analyse=0x3:0x113 / me=umh / subme=9 / psy=1 / fadecompensate=0.00 / psyrd=0.80:0.25 / mixedref=1 / merange=32 / chromame=1 / trellis=1 / 8x8dct=1 / cqm=0 / deadzone=21,11 / fastpskip=0 / chromaqpoffset=-4 / threads=12 / lookaheadthreads=1 / slicedthreads=0 / nr=0 / decimate=1 / interlaced=0 / bluraycompat=0 / constrainedintra=0 / fgo=0 / bframes=8 / bpyramid=2 / badapt=1 / bbias=0 / direct=1 / weightb=1 / opengop=0 / weightp=2 / keyint=250 / keyintmin=23 / scenecut=40 / intrarefresh=0 / rclookahead=70 / rc=crf / mbtree=1 / crf=17.0000 / qcomp=0.60 / qpmin=0:0:0 / qpmax=69:69:69 / qpstep=4 / ipratio=1.40 / aq=3:0.80 / aq-sensitivity=10.00 / aq-factor=1.00:1.00:1.00 / aq2=0 / aq3=0 Language : Japanese Default : Yes Forced : No

Audio #1 ID : 2 Format : FLAC Format/Info : Free Lossless Audio Codec Codec ID : A_FLAC Duration : 25 min 2 s Bit rate mode : Variable Bit rate : 683 kb/s Channel(s) : 2 channels Channel layout : L R Sampling rate : 48.0 kHz Frame rate : 11.719 FPS (4096 SPF) Bit depth : 16 bits Compression mode : Lossless Stream size : 122 MiB (8%) Writing library : libFLAC 1.2.1 (UTC 2007-09-17) Language : Japanese Default : Yes Forced : No

Audio #2 ID : 4 Format : AAC LC Format/Info : Advanced Audio Codec Low Complexity Codec ID : A_AAC-2 Duration : 25 min 3 s Bit rate : 160 kb/s Channel(s) : 2 channels Channel layout : L R Sampling rate : 48.0 kHz Frame rate : 46.875 FPS (1024 SPF) Compression mode : Lossy Delay relative to video : 2 ms Stream size : 28.7 MiB (2%) Title : Stereo Language : English Default : No Forced : No

Text ID : 3 Format : ASS Codec ID : S_TEXT/ASS Codec ID/Info : Advanced Sub Station Alpha Duration : 24 min 59 s Bit rate : 243 b/s Count of elements : 434 Compression mode : Lossless Stream size : 44.7 KiB (0%) Title : Anime-Koi Language : English Default : Yes Forced : No


More at ibit.to
And ibit.uno
And ibit.am
And ibit.ws

Comments

Files

Ronja, the Robber's Daughter (2014)/Ronja, the Robber's Daughter (2014) S01E01 Born in the Storm.mkv 1.6 GB
Ronja, the Robber's Daughter (2014)/Ronja, the Robber's Daughter (2014) S01E02 First Trip to the Forest.mkv 1.5 GB
Ronja, the Robber's Daughter (2014)/Ronja, the Robber's Daughter (2014) S01E03 Fear in the Forest.mkv 1.8 GB
Ronja, the Robber's Daughter (2014)/Ronja, the Robber's Daughter (2014) S01E04 Hearing the Whistler.mkv 1.6 GB
Ronja, the Robber's Daughter (2014)/Ronja, the Robber's Daughter (2014) S01E05 Enemy in the Fort.mkv 1.4 GB
Ronja, the Robber's Daughter (2014)/Ronja, the Robber's Daughter (2014) S01E06 Talking Without Asking.mkv 1.5 GB
Ronja, the Robber's Daughter (2014)/Ronja, the Robber's Daughter (2014) S01E07 Song In the Mist.mkv 1.4 GB
Ronja, the Robber's Daughter (2014)/Ronja, the Robber's Daughter (2014) S01E08 Autumn Deepens.mkv 1.6 GB
Ronja, the Robber's Daughter (2014)/Ronja, the Robber's Daughter (2014) S01E09 Stuck in the Snow.mkv 1.4 GB
Ronja, the Robber's Daughter (2014)/Ronja, the Robber's Daughter (2014) S01E10 The Vow to be Brother and Sister.mkv 1.4 GB
Ronja, the Robber's Daughter (2014)/Ronja, the Robber's Daughter (2014) S01E11 To Be Done in Secret.mkv 1.3 GB
Ronja, the Robber's Daughter (2014)/Ronja, the Robber's Daughter (2014) S01E12 The Whistler Underground.mkv 1.3 GB
Ronja, the Robber's Daughter (2014)/Ronja, the Robber's Daughter (2014) S01E13 Wretched Robbers.mkv 1.5 GB
Ronja, the Robber's Daughter (2014)/Ronja, the Robber's Daughter (2014) S01E14 Splendid Spring.mkv 1.7 GB
Ronja, the Robber's Daughter (2014)/Ronja, the Robber's Daughter (2014) S01E15 Endless Fighting (1).mkv 1.4 GB
Ronja, the Robber's Daughter (2014)/Ronja, the Robber's Daughter (2014) S01E16 Endless Fighting (2).mkv 1.4 GB
Ronja, the Robber's Daughter (2014)/Ronja, the Robber's Daughter (2014) S01E17 Moving Out.mkv 1.4 GB
Ronja, the Robber's Daughter (2014)/Ronja, the Robber's Daughter (2014) S01E18 Something in the Cave.mkv 1.5 GB
Ronja, the Robber's Daughter (2014)/Ronja, the Robber's Daughter (2014) S01E19 The Lost Knife.mkv 1.6 GB
Ronja, the Robber's Daughter (2014)/Ronja, the Robber's Daughter (2014) S01E20 With the Wild Horses.mkv 1.8 GB
Ronja, the Robber's Daughter (2014)/Ronja, the Robber's Daughter (2014) S01E21 Hunted by Harpies.mkv 1.6 GB
Ronja, the Robber's Daughter (2014)/Ronja, the Robber's Daughter (2014) S01E22 Only This Summer.mkv 1.6 GB
Ronja, the Robber's Daughter (2014)/Ronja, the Robber's Daughter (2014) S01E23 Life isn't to be Thrown Away.mkv 1.5 GB
Ronja, the Robber's Daughter (2014)/Ronja, the Robber's Daughter (2014) S01E24 Fight of the Wild Beasts.mkv 1.4 GB
Ronja, the Robber's Daughter (2014)/Ronja, the Robber's Daughter (2014) S01E25 One Band of Robbers.mkv 1.6 GB
Ronja, the Robber's Daughter (2014)/Ronja, the Robber's Daughter (2014) S01E26 The Call of Spring.mkv 1.5 GB

Stream

Downloading Seeding Ronja Rövardotter (Sanzoku no Musume Ronja) (1080p) (BDRip) (Dual Audio) from to 0 peers.
of
0 b/s / ↗0 b/s