• 2,147,483,647
  • 41
  • 411
  • done
Downloadondemand_video
  • Ride Along (2014) + Extras (1080p BluRay x265 HEVC 10bit AAC 5.1 RZeroX)
  • 6.1 GB
  • QxR
  • Ride 2014 Extras 1080p BluRay x265 HEVC 10bit RZeroX
  • English
  • HEVC/x265
62%

Ride Along (2014)

  • Action Comedy
  • For the past two years, high-school security guard Ben has been trying to show decorated APD detective James that he's more than just a video-game junkie who's unworthy of James' sister, Angela. When Ben finally gets accepted into the academy, he thinks he's earned the seasoned policeman's respect and asks for his blessing to marry Angela. Knowing that a ride along will demonstrate if Ben has what it takes to take care of his sister, James invites him on a shift designed to scare the hell out of the trainee. But when the wild night leads them to the most notorious criminal in the city, James will find that his new partner's rapid-fire mouth is just as dangerous as the bullets speeding at it.

    expand_more
    English
  • $25,000,000
  • Description

    image

    https://www.imdb.com/title/tt1408253/

    imageimageimageimageimageimage


    ** Media Information **


    Code:

    __ General
    Format : Matroska

    Format version : Version 4 / Version 2

    File size : 4.39 GiB

    Duration : 1 h 39 min

    Overall bit rate : 6 303 kb/s

    Movie name : Ride Along (2014)

    Encoded date : UTC 2018-12-01 16:33:01

    Writing application : mkvmerge v28.2.0 ('The Awakening') 64-bit

    Writing library : libebml v1.3.6 + libmatroska v1.4.9

    Video
    ID : 1

    Format : HEVC

    Format/Info : High Efficiency Video Coding

    Format profile : Main [email protected]@Main

    Codec ID : V_MPEGH/ISO/HEVC

    Duration : 1 h 39 min

    Bit rate : 5 550 kb/s

    Width : 1 920 pixels

    Height : 800 pixels

    Display aspect ratio : 2.40:1

    Frame rate mode : Constant

    Frame rate : 23.976 (24000/1001) FPS

    Color space : YUV

    Chroma subsampling : 4:2:0

    Bit depth : 10 bits

    Bits/(Pixel*Frame) : 0.151

    Stream size : 3.86 GiB (88%)

    Writing library : x265 2.9+8-27d8424c799d:[Windows][GCC 8.2.0][64 bit] 10bit

    Encoding settings : cpuid=1111039 / frame-threads=3 / numa-pools=12 / wpp / no-pmode / no-pme / no-psnr / no-ssim / log-level=2 / input-csp=1 / input-res=1920x800 / interlace=0 / total-frames=143352 / level-idc=0 / high-tier=1 / uhd-bd=0 / ref=4 / no-allow-non-conformance / no-repeat-headers / annexb / no-aud / no-hrd / info / hash=0 / no-temporal-layers / open-gop / min-keyint=23 / keyint=250 / gop-lookahead=0 / bframes=8 / b-adapt=2 / b-pyramid / bframe-bias=0 / rc-lookahead=80 / lookahead-slices=4 / scenecut=40 / radl=0 / no-intra-refresh / ctu=64 / min-cu-size=8 / no-rect / no-amp / max-tu-size=32 / tu-inter-depth=1 / tu-intra-depth=1 / limit-tu=0 / rdoq-level=2 / dynamic-rd=0.00 / no-ssim-rd / signhide / no-tskip / nr-intra=0 / nr-inter=0 / no-constrained-intra / no-strong-intra-smoothing / max-merge=3 / limit-refs=3 / limit-modes / me=3 / subme=5 / merange=57 / temporal-mvp / weightp / weightb / no-analyze-src-pics / deblock=-1:-1 / no-sao / no-sao-non-deblock / rd=4 / no-early-skip / rskip / no-fast-intra / no-tskip-fast / no-cu-lossless / no-b-intra / no-splitrd-skip / rdpenalty=0 / psy-rd=2.00 / psy-rdoq=2.00 / no-rd-refine / no-lossless / cbqpoffs=0 / crqpoffs=0 / rc=abr / bitrate=5550 / qcomp=0.60 / qpstep=4 / stats-write=0 / stats-read=2 / cplxblur=20.0 / qblur=0.5 / ipratio=1.40 / pbratio=1.30 / aq-mode=3 / aq-strength=1.00 / cutree / zone-count=0 / no-strict-cbr / qg-size=32 / no-rc-grain / qpmax=69 / qpmin=0 / no-const-vbv / sar=0 / overscan=0 / videoformat=5 / range=0 / colorprim=2 / transfer=2 / colormatrix=2 / chromaloc=0 / display-window=0 / max-cll=0,0 / min-luma=0 / max-luma=1023 / log2-max-poc-lsb=8 / vui-timing-info / vui-hrd-info / slices=1 / no-opt-qp-pps / no-opt-ref-list-length-pps / no-multi-pass-opt-rps / scenecut-bias=0.00 / no-opt-cu-delta-qp / no-aq-motion / no-hdr / no-hdr-opt / no-dhdr10-opt / no-idr-recovery-sei / analysis-reuse-level=5 / scale-factor=0 / refine-intra=0 / refine-inter=0 / refine-mv=0 / no-limit-sao / ctu-info=0 / no-lowpass-dct / refine-mv-type=0 / copy-pic=1 / max-ausize-factor=1.0 / no-dynamic-refine / no-single-sei

    Default : Yes

    Forced : No

    Audio #1
    ID : 2

    Format : AAC

    Format/Info : Advanced Audio Codec

    Format profile : LC

    Codec ID : A_AAC

    Duration : 1 h 39 min

    Bit rate : 424 kb/s

    Channel(s) : 6 channels

    Channel positions : Front: L C R, Side: L R, LFE

    Sampling rate : 48.0 kHz

    Frame rate : 46.875 FPS (1024 spf)

    Compression mode : Lossy

    Delay relative to video : 20 ms

    Stream size : 302 MiB (7%)

    Language : English

    Default : No

    Forced : No

    Audio #2
    ID : 3

    Format : AAC

    Format/Info : Advanced Audio Codec

    Format profile : HE-AAC / LC

    Codec ID : A_AAC

    Duration : 1 h 39 min

    Bit rate : 192 kb/s

    Channel(s) : 6 channels

    Channel positions : Front: L C R, Side: L R, LFE

    Sampling rate : 48.0 kHz / 24.0 kHz

    Frame rate : 23.438 FPS (1024 spf)

    Compression mode : Lossy

    Delay relative to video : 40 ms

    Stream size : 137 MiB (3%)

    Language : Spanish

    Default : No

    Forced : No

    Audio #3
    ID : 4

    Format : AAC

    Format/Info : Advanced Audio Codec

    Format profile : HE-AAC / LC

    Codec ID : A_AAC

    Duration : 1 h 39 min

    Bit rate : 80.0 kb/s

    Channel(s) : 2 channels

    Channel positions : Front: L R

    Sampling rate : 48.0 kHz / 24.0 kHz

    Frame rate : 23.438 FPS (1024 spf)

    Compression mode : Lossy

    Delay relative to video : 40 ms

    Stream size : 57.0 MiB (1%)

    Title : Commentary with Tim Story

    Language : English

    Default : No

    Forced : No

    Subtitle #1
    ID : 5

    Format : PGS

    Muxing mode : zlib

    Codec ID : S_HDMV/PGS

    Codec ID/Info : Picture based subtitle format used on BDs/HD-DVDs

    Duration : 1 h 35 min

    Bit rate : 72.1 kb/s

    Count of elements : 4759

    Stream size : 49.0 MiB (1%)

    Language : English

    Default : No

    Forced : No

    Subtitle #2
    ID : 6

    Format : PGS

    Muxing mode : zlib

    Codec ID : S_HDMV/PGS

    Codec ID/Info : Picture based subtitle format used on BDs/HD-DVDs

    Duration : 1 h 35 min

    Bit rate : 59.4 kb/s

    Count of elements : 4249

    Stream size : 40.4 MiB (1%)

    Language : French

    Default : No

    Forced : No

    Subtitle #3
    ID : 7

    Format : PGS

    Muxing mode : zlib

    Codec ID : S_HDMV/PGS

    Codec ID/Info : Picture based subtitle format used on BDs/HD-DVDs

    Duration : 1 h 35 min

    Bit rate : 55.7 kb/s

    Count of elements : 4238

    Stream size : 37.9 MiB (1%)

    Language : Spanish

    Default : No

    Forced : No

    Menu
    00:00:00.000 : en:Chapter 01

    00:05:08.933 : en:Chapter 02

    00:10:37.386 : en:Chapter 03

    00:14:40.921 : en:Chapter 04

    00:19:46.435 : en:Chapter 05

    00:25:03.418 : en:Chapter 06

    00:31:16.749 : en:Chapter 07

    00:35:46.394 : en:Chapter 08

    00:40:51.657 : en:Chapter 09

    00:44:31.001 : en:Chapter 10

    00:50:40.162 : en:Chapter 11

    00:54:49.995 : en:Chapter 12

    01:00:00.930 : en:Chapter 13

    01:06:13.135 : en:Chapter 14

    01:11:47.303 : en:Chapter 15

    01:18:44.553 : en:Chapter 16

    01:22:53.593 : en:Chapter 17

    01:26:27.974 : en:Chapter 18

    01:30:09.278 : en:Chapter 19

    01:35:27.346 : en:Chapter 20

    __


    ** Source Information **


    Code:

    __ Release:

    Untouched Bluray

    __

    image


    ** Note From QxR: **


    Quote:

    __ Whilst we are happy for our releases to be re-posted on a platform we aren't on, please do so in an 'as-is' format. We ask that you do not create a new torrent, include all descriptions you see above including the QxR logo, tags, notes and screenshots. If you'd like to become a permanent poster on a website we don't post to, feel free to get in contact with a QxR member.

    __


    More at ibit.to
    And ibit.uno
    And ibit.am
    And ibit.ws

    Reviews

    Comments

    3 years ago

    Aye, thank you captain!

    Files

    Featurettes/Alternate Ending.mkv 46 MB
    Featurettes/Alternate Take.mkv 15 MB
    Featurettes/An Explosive Ride - Featurette.mkv 265 MB
    Featurettes/Anatomy of the Big Blast - Featurette.mkv 209 MB
    Featurettes/Atlanta The Character - Featurette.mkv 154 MB
    Featurettes/Deleted Scenes.mkv 135 MB
    Featurettes/Gag Reel.mkv 56 MB
    Featurettes/It Was a Good Day - On the Set of Ride Along - Featurette.mkv 430 MB
    Featurettes/Kev & Cube's Wild Ride - Featurette.mkv 231 MB
    Featurettes/You Gonna Learn Today - Featurette.mkv 176 MB
    Ride Along (2014) (1080p BluRay x265 RZeroX).mkv 4.4 GB

    Stream

    Downloading Seeding Ride Along (2014) + Extras (1080p BluRay x265 HEVC 10bit AAC 5.1 RZeroX) from to 0 peers.
    of
    0 b/s / ↗0 b/s