• 0
  • 0
  • done
  • Post Malone - beerbongs & bentleys - 2018 FLAC-MFA
  • 411 MB
  • afro-samurai
  • Post Malone beerbongs bentleys 2018 FLAC MFA
  • Other

Description

Post Malone / beerbongs & bentleys

image

Жанр : Hip-Hop

Носитель : CD

Страна-производитель диска (релиза) : USA

Год издания : 2018

Издатель (лейбл) : Republic

Номер по каталогу : B0028218-02

Страна исполнителя (группы) : USA

Аудиокодек : FLAC (*.flac)

Тип рипа : tracks+.cue

Битрейт аудио : lossless

Продолжительность : 01:04:14

Источник (релизер) : Red (TaylorSpliff)

Наличие сканов в содержимом раздачи : нет

Треклист :

  1. Paranoid (3:41)
    1. Spoil My Night (feat. Swae Lee) (3:14)
    2. Rich & Sad (3:26)
    3. Zack and Codeine (3:24)
    4. Takin’ Shots (3:36)
    5. rockstar (feat. 21 Savage) (3:38)
    6. Over Now (4:06)
    7. Psycho (feat. Ty Dolla $ign) (3:41)
    8. Better Now (3:51)
    9. Ball For Me (feat. Nicki Minaj) (3:26)
    10. Otherside (3:48)
    11. Stay (3:24)
    12. Blame It On Me (4:21)
    13. Same Bitches (feat. G-Eazy & YG) (3:32)
    14. Jonestown (Interlude) (1:52)
    15. 92 Explorer (3:31)
    16. Candy Paint (3:47)
    17. Sugar Wraith (3:48)

Лог создания рипа

`X Lossless Decoder version 20170729 (150.3)

XLD extraction logfile from 2018-04-27 16:53:00 -0400

Post Malone / Beerbongs & Bentleys

Used drive : HL-DT-ST DVDRAM SP80NB80 (revision RC00)
Media type : Pressed CD

Ripper mode : XLD Secure Ripper
Disable audio cache : OK for the drive with a cache less than 1375KiB
Make use of C2 pointers : NO
Read offset correction : 6
Max retry count : 20
Gap status : Analyzed, Appended (except HTOA)

TOC of the extracted CD
Track | Start | Length | Start sector | End sector


1 | 00:00:00 | 03:41:59 | 0 | 16633
2 | 03:41:59 | 03:14:42 | 16634 | 31225
3 | 06:56:26 | 03:26:34 | 31226 | 46709
4 | 10:22:60 | 03:24:27 | 46710 | 62036
5 | 13:47:12 | 03:36:56 | 62037 | 78292
6 | 17:23:68 | 03:38:11 | 78293 | 94653
7 | 21:02:04 | 04:06:74 | 94654 | 113177
8 | 25:09:03 | 03:41:33 | 113178 | 129785
9 | 28:50:36 | 03:51:20 | 129786 | 147130
10 | 32:41:56 | 03:26:20 | 147131 | 162600
11 | 36:08:01 | 03:48:17 | 162601 | 179717
12 | 39:56:18 | 03:24:32 | 179718 | 195049
13 | 43:20:50 | 04:21:60 | 195050 | 214684
14 | 47:42:35 | 03:32:35 | 214685 | 230619
15 | 51:14:70 | 01:52:01 | 230620 | 239020
16 | 53:06:71 | 03:31:32 | 239021 | 254877
17 | 56:38:28 | 03:47:40 | 254878 | 271942
18 | 60:25:68 | 03:48:11 | 271943 | 289053

AccurateRip Summary
Disc not found in AccurateRip DB.

All Tracks
Album gain : -9.26 dB
Peak : 0.999939
Statistics
Read error : 0
Jitter error (maybe fixed) : 0
Retry sector count : 0
Damaged sector count : 0

Track 01
Filename : /Rips/Post Malone - Beerbongs & Bentleys 01 [FLAC]/01 Paranoid.flac
Pre-gap length : 00:02:00

Track gain : -9.29 dB
Peak : 0.991150
CRC32 hash (test run) : 422827AC
CRC32 hash : 422827AC
CRC32 hash (skip zero) : A3EF9273
AccurateRip v1 signature : C90F097B
AccurateRip v2 signature : 63E9808A
->Track not present in AccurateRip database.
Statistics
Read error : 0
Jitter error (maybe fixed) : 0
Retry sector count : 0
Damaged sector count : 0

Track 02
Filename : /Rips/Post Malone - Beerbongs & Bentleys 01 [FLAC]/02 Spoil My Night (feat. Swae Lee).flac

Track gain : -9.31 dB
Peak : 0.990540
CRC32 hash (test run) : 200DF23E
CRC32 hash : 200DF23E
CRC32 hash (skip zero) : 42216D91
AccurateRip v1 signature : 0CECB4C4
AccurateRip v2 signature : F9F78D8D
->Track not present in AccurateRip database.
Statistics
Read error : 0
Jitter error (maybe fixed) : 0
Retry sector count : 0
Damaged sector count : 0

Track 03
Filename : /Rips/Post Malone - Beerbongs & Bentleys 01 [FLAC]/03 Rich & Sad.flac

Track gain : -9.00 dB
Peak : 0.995422
CRC32 hash (test run) : 390B9647
CRC32 hash : 390B9647
CRC32 hash (skip zero) : 0B477CBD
AccurateRip v1 signature : 6EE1914A
AccurateRip v2 signature : 63F11261
->Track not present in AccurateRip database.
Statistics
Read error : 0
Jitter error (maybe fixed) : 0
Retry sector count : 0
Damaged sector count : 0

Track 04
Filename : /Rips/Post Malone - Beerbongs & Bentleys 01 [FLAC]/04 Zack And Codeine.flac

Track gain : -8.43 dB
Peak : 0.991028
CRC32 hash (test run) : 8D9BB3CA
CRC32 hash : 8D9BB3CA
CRC32 hash (skip zero) : A680EB81
AccurateRip v1 signature : C9D9997B
AccurateRip v2 signature : B0A0044B
->Track not present in AccurateRip database.
Statistics
Read error : 0
Jitter error (maybe fixed) : 0
Retry sector count : 0
Damaged sector count : 0

Track 05
Filename : /Rips/Post Malone - Beerbongs & Bentleys 01 [FLAC]/05 Takin' Shots.flac

Track gain : -7.94 dB
Peak : 0.997406
CRC32 hash (test run) : 823B3CF4
CRC32 hash : 823B3CF4
CRC32 hash (skip zero) : 819F9D65
AccurateRip v1 signature : 703A256B
AccurateRip v2 signature : F47FE788
->Track not present in AccurateRip database.
Statistics
Read error : 0
Jitter error (maybe fixed) : 0
Retry sector count : 0
Damaged sector count : 0

Track 06
Filename : /Rips/Post Malone - Beerbongs & Bentleys 01 [FLAC]/06 Rockstar (feat. 21 Savage).flac

Track gain : -7.84 dB
Peak : 0.990631
CRC32 hash (test run) : DD2FEB00
CRC32 hash : DD2FEB00
CRC32 hash (skip zero) : 8B9F538F
AccurateRip v1 signature : C988ABB1
AccurateRip v2 signature : 64194599
->Track not present in AccurateRip database.
Statistics
Read error : 0
Jitter error (maybe fixed) : 0
Retry sector count : 0
Damaged sector count : 0

Track 07
Filename : /Rips/Post Malone - Beerbongs & Bentleys 01 [FLAC]/07 Over Now.flac

Track gain : -9.93 dB
Peak : 0.990448
CRC32 hash (test run) : 53B5CB5D
CRC32 hash : 53B5CB5D
CRC32 hash (skip zero) : FF84189E
AccurateRip v1 signature : C7FA9EDA
AccurateRip v2 signature : 595F8407
->Track not present in AccurateRip database.
Statistics
Read error : 0
Jitter error (maybe fixed) : 0
Retry sector count : 0
Damaged sector count : 0

Track 08
Filename : /Rips/Post Malone - Beerbongs & Bentleys 01 [FLAC]/08 Psycho (feat. Ty Dolla $ign).flac

Track gain : -7.64 dB
Peak : 0.991821
CRC32 hash (test run) : 8AA9AABD
CRC32 hash : 8AA9AABD
CRC32 hash (skip zero) : F6E6D972
AccurateRip v1 signature : 00560951
AccurateRip v2 signature : CA79B779
->Track not present in AccurateRip database.
Statistics
Read error : 0
Jitter error (maybe fixed) : 0
Retry sector count : 0
Damaged sector count : 0

Track 09
Filename : /Rips/Post Malone - Beerbongs & Bentleys 01 [FLAC]/09 Better Now.flac

Track gain : -8.10 dB
Peak : 0.999939
CRC32 hash (test run) : 4AE9B66B
CRC32 hash : 4AE9B66B
CRC32 hash (skip zero) : F78A0D96
AccurateRip v1 signature : A7A288CA
AccurateRip v2 signature : 9CDB11A3
->Track not present in AccurateRip database.
Statistics
Read error : 0
Jitter error (maybe fixed) : 0
Retry sector count : 0
Damaged sector count : 0

Track 10
Filename : /Rips/Post Malone - Beerbongs & Bentleys 01 [FLAC]/10 Ball For Me (feat. Nicki Minaj).flac

Track gain : -9.36 dB
Peak : 0.992645
CRC32 hash (test run) : 40222C83
CRC32 hash : 40222C83
CRC32 hash (skip zero) : C3BAD508
AccurateRip v1 signature : D728ACAE
AccurateRip v2 signature : C27D0E27
->Track not present in AccurateRip database.
Statistics
Read error : 0
Jitter error (maybe fixed) : 0
Retry sector count : 0
Damaged sector count : 0

Track 11
Filename : /Rips/Post Malone - Beerbongs & Bentleys 01 [FLAC]/11 Otherside.flac

Track gain : -9.68 dB
Peak : 0.990814
CRC32 hash (test run) : B009E84A
CRC32 hash : B009E84A
CRC32 hash (skip zero) : 98A09FBC
AccurateRip v1 signature : 1A7DB739
AccurateRip v2 signature : 0AC4C26E
->Track not present in AccurateRip database.
Statistics
Read error : 0
Jitter error (maybe fixed) : 0
Retry sector count : 0
Damaged sector count : 0

Track 12
Filename : /Rips/Post Malone - Beerbongs & Bentleys 01 [FLAC]/12 Stay.flac

Track gain : -9.16 dB
Peak : 0.972107
CRC32 hash (test run) : EC69424F
CRC32 hash : EC69424F
CRC32 hash (skip zero) : 3CC48A62
AccurateRip v1 signature : 8A2CD0A0
AccurateRip v2 signature : 3DEBB281
->Track not present in AccurateRip database.
Statistics
Read error : 0
Jitter error (maybe fixed) : 0
Retry sector count : 0
Damaged sector count : 0

Track 13
Filename : /Rips/Post Malone - Beerbongs & Bentleys 01 [FLAC]/13 Blame It On Me.flac

Track gain : -8.86 dB
Peak : 0.991669
CRC32 hash (test run) : C8BDEA57
CRC32 hash : C8BDEA57
CRC32 hash (skip zero) : 8BAD52F2
AccurateRip v1 signature : 2FC8B5B2
AccurateRip v2 signature : C2AAE17F
->Track not present in AccurateRip database.
Statistics
Read error : 0
Jitter error (maybe fixed) : 0
Retry sector count : 0
Damaged sector count : 0

Track 14
Filename : /Rips/Post Malone - Beerbongs & Bentleys 01 [FLAC]/14 Same Bitches (feat. G-Eazy & YG).flac

Track gain : -8.93 dB
Peak : 0.996033
CRC32 hash (test run) : 9F4AA14F
CRC32 hash : 9F4AA14F
CRC32 hash (skip zero) : 1040A257
AccurateRip v1 signature : 8E3D91B3
AccurateRip v2 signature : F5911D7A
->Track not present in AccurateRip database.
Statistics
Read error : 0
Jitter error (maybe fixed) : 0
Retry sector count : 0
Damaged sector count : 0

Track 15
Filename : /Rips/Post Malone - Beerbongs & Bentleys 01 [FLAC]/15 Jonestown (Interlude).flac

Track gain : -8.83 dB
Peak : 0.989166
CRC32 hash (test run) : 8883B3F4
CRC32 hash : 8883B3F4
CRC32 hash (skip zero) : 6D753C47
AccurateRip v1 signature : 34B4B55D
AccurateRip v2 signature : 43E1DC8F
->Track not present in AccurateRip database.
Statistics
Read error : 0
Jitter error (maybe fixed) : 0
Retry sector count : 0
Damaged sector count : 0

Track 16
Filename : /Rips/Post Malone - Beerbongs & Bentleys 01 [FLAC]/16 92 Explorer.flac

Track gain : -8.89 dB
Peak : 0.989746
CRC32 hash (test run) : 15CF84A0
CRC32 hash : 15CF84A0
CRC32 hash (skip zero) : 4F491759
AccurateRip v1 signature : 50F4EADE
AccurateRip v2 signature : 075FCF30
->Track not present in AccurateRip database.
Statistics
Read error : 0
Jitter error (maybe fixed) : 0
Retry sector count : 0
Damaged sector count : 0

Track 17
Filename : /Rips/Post Malone - Beerbongs & Bentleys 01 [FLAC]/17 Candy Paint.flac

Track gain : -8.97 dB
Peak : 0.995697
CRC32 hash (test run) : E9981356
CRC32 hash : E9981356
CRC32 hash (skip zero) : C95277B5
AccurateRip v1 signature : D008D212
AccurateRip v2 signature : 57696A30
->Track not present in AccurateRip database.
Statistics
Read error : 0
Jitter error (maybe fixed) : 0
Retry sector count : 0
Damaged sector count : 0

Track 18
Filename : /Rips/Post Malone - Beerbongs & Bentleys 01 [FLAC]/18 Sugar Wraith.flac

Track gain : -10.69 dB
Peak : 0.990784
CRC32 hash (test run) : 087DDD45
CRC32 hash : 087DDD45
CRC32 hash (skip zero) : C6E7368D
AccurateRip v1 signature : 3D1451E1
AccurateRip v2 signature : 7FE54447
->Track not present in AccurateRip database.
Statistics
Read error : 0
Jitter error (maybe fixed) : 0
Retry sector count : 0
Damaged sector count : 0

No errors occurred

End of status report

-----BEGIN XLD SIGNATURE-----
eW6LzB1O1hTHppOlOoO6Rh.dOVmKHz.5XgaRGyzihKQWQkdtfhvy9mSiYTKvGQCUHQHOz4vk5tT80V3lWtanj9hhPb84YhGdJdNGG
-----END XLD SIGNATURE----- `

Содержание индексной карты (.CUE)

TITLE "Beerbongs & Bentleys" PERFORMER "Post Malone" CATALOG 0602567491118 REM GENRE "R&B" REM DATE "2018" REM DISCNUMBER 1 REM TOTALDISCS 1 REM DISCID EF0F0E12 REM REPLAYGAIN_ALBUM_GAIN -9.26 dB REM REPLAYGAIN_ALBUM_PEAK 0.999939 FILE "01 Paranoid.flac" WAVE TRACK 01 AUDIO TITLE "Paranoid" ISRC USUM71710835 REM REPLAYGAIN_TRACK_GAIN -9.29 dB REM REPLAYGAIN_TRACK_PEAK 0.991150 INDEX 01 00:00:00 FILE "02 Spoil My Night (feat. Swae Lee).flac" WAVE TRACK 02 AUDIO TITLE "Spoil My Night (feat. Swae Lee)" ISRC USUM71805153 REM REPLAYGAIN_TRACK_GAIN -9.31 dB REM REPLAYGAIN_TRACK_PEAK 0.990540 INDEX 01 00:00:00 FILE "03 Rich & Sad.flac" WAVE TRACK 03 AUDIO TITLE "Rich & Sad" ISRC USUM71805166 REM REPLAYGAIN_TRACK_GAIN -9.00 dB REM REPLAYGAIN_TRACK_PEAK 0.995422 INDEX 01 00:00:00 FILE "04 Zack And Codeine.flac" WAVE TRACK 04 AUDIO TITLE "Zack And Codeine" ISRC USUM71805167 REM REPLAYGAIN_TRACK_GAIN -8.43 dB REM REPLAYGAIN_TRACK_PEAK 0.991028 INDEX 01 00:00:00 FILE "05 Takin' Shots.flac" WAVE TRACK 05 AUDIO TITLE "Takin' Shots" ISRC USUM71805168 REM REPLAYGAIN_TRACK_GAIN -7.94 dB REM REPLAYGAIN_TRACK_PEAK 0.997406 INDEX 01 00:00:00 FILE "06 Rockstar (feat. 21 Savage).flac" WAVE TRACK 06 AUDIO TITLE "Rockstar (feat. 21 Savage)" ISRC USUM71710087 REM REPLAYGAIN_TRACK_GAIN -7.84 dB REM REPLAYGAIN_TRACK_PEAK 0.990631 INDEX 01 00:00:00 FILE "07 Over Now.flac" WAVE TRACK 07 AUDIO TITLE "Over Now" ISRC USUM71805169 REM REPLAYGAIN_TRACK_GAIN -9.93 dB REM REPLAYGAIN_TRACK_PEAK 0.990448 INDEX 01 00:00:00 FILE "08 Psycho (feat. Ty Dolla $ign).flac" WAVE TRACK 08 AUDIO TITLE "Psycho (feat. Ty Dolla $ign)" ISRC USUM71710836 REM REPLAYGAIN_TRACK_GAIN -7.64 dB REM REPLAYGAIN_TRACK_PEAK 0.991821 INDEX 01 00:00:00 FILE "09 Better Now.flac" WAVE TRACK 09 AUDIO TITLE "Better Now" ISRC USUM71805170 REM REPLAYGAIN_TRACK_GAIN -8.10 dB REM REPLAYGAIN_TRACK_PEAK 0.999939 INDEX 01 00:00:00 FILE "10 Ball For Me (feat. Nicki Minaj).flac" WAVE TRACK 10 AUDIO TITLE "Ball For Me (feat. Nicki Minaj)" ISRC USUM71710834 REM REPLAYGAIN_TRACK_GAIN -9.36 dB REM REPLAYGAIN_TRACK_PEAK 0.992645 INDEX 01 00:00:00 FILE "11 Otherside.flac" WAVE TRACK 11 AUDIO TITLE "Otherside" ISRC USUM71805171 REM REPLAYGAIN_TRACK_GAIN -9.68 dB REM REPLAYGAIN_TRACK_PEAK 0.990814 INDEX 01 00:00:00 FILE "12 Stay.flac" WAVE TRACK 12 AUDIO TITLE "Stay" ISRC USUM71805172 REM REPLAYGAIN_TRACK_GAIN -9.16 dB REM REPLAYGAIN_TRACK_PEAK 0.972107 INDEX 01 00:00:00 FILE "13 Blame It On Me.flac" WAVE TRACK 13 AUDIO TITLE "Blame It On Me" ISRC USUM71805173 REM REPLAYGAIN_TRACK_GAIN -8.86 dB REM REPLAYGAIN_TRACK_PEAK 0.991669 INDEX 01 00:00:00 FILE "14 Same Bitches (feat. G-Eazy & YG).flac" WAVE TRACK 14 AUDIO TITLE "Same Bitches (feat. G-Eazy & YG)" ISRC USUM71805174 REM REPLAYGAIN_TRACK_GAIN -8.93 dB REM REPLAYGAIN_TRACK_PEAK 0.996033 INDEX 01 00:00:00 FILE "15 Jonestown (Interlude).flac" WAVE TRACK 15 AUDIO TITLE "Jonestown (Interlude)" ISRC USUM71805175 REM REPLAYGAIN_TRACK_GAIN -8.83 dB REM REPLAYGAIN_TRACK_PEAK 0.989166 INDEX 01 00:00:00 FILE "16 92 Explorer.flac" WAVE TRACK 16 AUDIO TITLE "92 Explorer" ISRC USUM71805176 REM REPLAYGAIN_TRACK_GAIN -8.89 dB REM REPLAYGAIN_TRACK_PEAK 0.989746 INDEX 01 00:00:00 FILE "17 Candy Paint.flac" WAVE TRACK 17 AUDIO TITLE "Candy Paint" ISRC USUM71711842 REM REPLAYGAIN_TRACK_GAIN -8.97 dB REM REPLAYGAIN_TRACK_PEAK 0.995697 INDEX 01 00:00:00 FILE "18 Sugar Wraith.flac" WAVE TRACK 18 AUDIO TITLE "Sugar Wraith" ISRC USUM71805177 REM REPLAYGAIN_TRACK_GAIN -10.69 dB REM REPLAYGAIN_TRACK_PEAK 0.990784 INDEX 01 00:00:00

Лог проверки качества

`-----------------------

DON'T MODIFY THIS FILE


PERFORMER: auCDtect Task Manager, ver. 1.6.0 RC1 build 1.6.0.1
Copyright (c) 2008-2010 y-soft. All rights reserved
http://y-soft.org

ANALYZER: auCDtect: CD records authenticity detector, version 0.8.2
Copyright (c) 2004 Oleg Berngardt. All rights reserved.
Copyright (c) 2004 Alexander Djourik. All rights reserved.

FILE: 18 Sugar Wraith.flac
Size: 26928693 Hash: 2B4FC8BE219ECACEA6B6C37E5C59900A Accuracy: -m0
Conclusion: CDDA 100%
Signature: D8F2DD7EDE4110648310B810A1BF1DD502189316
FILE: 17 Candy Paint.flac
Size: 24974555 Hash: 220E61A24ADA60A08695360D1D76F7EF Accuracy: -m0
Conclusion: CDDA 99%
Signature: F042EE8A57DD24212E2C0E76BB54E83F5B455DCB
FILE: 16 92 Explorer.flac
Size: 23392563 Hash: 7AA69310BF2490B89A8B33BFB911E94A Accuracy: -m0
Conclusion: CDDA 99%
Signature: 16F4AFFB956765F8251F25C84EC8ADE1EE30E024
FILE: 15 Jonestown (Interlude).flac
Size: 10284122 Hash: 068317E9CA8BF4BC1C1F939889C255ED Accuracy: -m0
Conclusion: CDDA 100%
Signature: 3689D755BCBE3075D746EB6A4BA8B45C4980A05E
FILE: 14 Same Bitches (feat. G-Eazy & YG).flac
Size: 24256176 Hash: D27890ECD9F0771209498C7E4C6B37EB Accuracy: -m0
Conclusion: CDDA 100%
Signature: 1324372DA59426CBE2BC55D63C17097F7014D2E1
FILE: 13 Blame It On Me.flac
Size: 28989678 Hash: 16CFBC2A898D3419E0190CF26C813F4A Accuracy: -m0
Conclusion: CDDA 100%
Signature: 4DD199C2C8F3728FB1811833BBDCFF3FAC7C0E92
FILE: 12 Stay.flac
Size: 24996709 Hash: DE344390816B8BDC4E266B9AB8AB9F6A Accuracy: -m0
Conclusion: CDDA 99%
Signature: 53C330E76234C5BD6733C57F31387B99E9FEDA7F
FILE: 11 Otherside.flac
Size: 26360939 Hash: D2FF978B05139B2F166BD1986DE5CA42 Accuracy: -m0
Conclusion: CDDA 99%
Signature: EC438C92536B07A7728BE42DB6D5DAD71F222F20
FILE: 10 Ball For Me (feat. Nicki Minaj).flac
Size: 23813842 Hash: 06528078148D89EF0BE78D2F27EA0CE4 Accuracy: -m0
Conclusion: CDDA 100%
Signature: 04DA6E9D41B648D61715C4AB383BDDEE1F17F06A
FILE: 09 Better Now.flac
Size: 25545861 Hash: 3F6BA80E506BD47DFC6CFD01F6B95820 Accuracy: -m0
Conclusion: CDDA 100%
Signature: 20B605408A8FFB3CBA9E6DB2D7DA21F5005BE323
FILE: 08 Psycho (feat. Ty Dolla $ign).flac
Size: 23954713 Hash: D45C93994931A63EB33E2823AE329B0C Accuracy: -m0
Conclusion: CDDA 100%
Signature: A01EFB3D923A6F1D699377EF293A4B0E21B699E3
FILE: 07 Over Now.flac
Size: 29113999 Hash: C7AD5DBFBB47B66B3C2D9E0911BFB682 Accuracy: -m0
Conclusion: CDDA 100%
Signature: 8BFFA1F728E324B2F6EB01BA6D07D189DFF6691C
FILE: 06 Rockstar (feat. 21 Savage).flac
Size: 23986985 Hash: C09B436BAA60EB2048166BA0F503DD8C Accuracy: -m0
Conclusion: CDDA 100%
Signature: 43C5BAA7650706497192A0711B84624408F90064
FILE: 05 Takin' Shots.flac
Size: 24218509 Hash: 5E9AFAD77E682F2065086EA698ADB4AF Accuracy: -m0
Conclusion: CDDA 100%
Signature: 9FD6A65E52C86AF164137EA2F298EC58E9642DDA
FILE: 04 Zack And Codeine.flac
Size: 23233069 Hash: E42601861ABA0613596C15D1DEFD9A9B Accuracy: -m0
Conclusion: CDDA 100%
Signature: B9B992574B9CC3B258F09545E6D6A1D95696FAE3
FILE: 03 Rich & Sad.flac
Size: 21228776 Hash: B67C87DD0F37D97694FC409B10DF9F1A Accuracy: -m0
Conclusion: CDDA 100%
Signature: 9CBC20802B8587176484605D3948BFE12290C3F8
FILE: 02 Spoil My Night (feat. Swae Lee).flac
Size: 21857898 Hash: B63FC0FF4780D22C5B8DA5D6E4066C48 Accuracy: -m0
Conclusion: CDDA 100%
Signature: D75EAA683318F542ABD423CACD79173E1BDCC6B5
FILE: 01 Paranoid.flac
Size: 23703469 Hash: 2CCD7746258300FDA763DDA00156F79D Accuracy: -m0
Conclusion: CDDA 100%
Signature: D75E293FCB525FA65B7FA19F8B7FA0DA9707673C `


More at ibit.to
And ibit.uno
And ibit.am
And ibit.ws

Comments

1 year ago

rockstar просто полный улет! ))

11 months ago

Psycho& Rockstar are the most valueble tracks!

Files

Post Malone - Beerbongs & Bentleys (2018) [CD FLAC]/Post Malone Beerbongs & Bentleys (2018) [CD FLAC] -
Post Malone - Beerbongs & Bentleys (2018) [CD FLAC]/07 Over Now.flac 28 MB
Post Malone - Beerbongs & Bentleys (2018) [CD FLAC]/13 Blame It On Me.flac 28 MB
Post Malone - Beerbongs & Bentleys (2018) [CD FLAC]/18 Sugar Wraith.flac 26 MB
Post Malone - Beerbongs & Bentleys (2018) [CD FLAC]/11 Otherside.flac 25 MB
Post Malone - Beerbongs & Bentleys (2018) [CD FLAC]/09 Better Now.flac 24 MB
Post Malone - Beerbongs & Bentleys (2018) [CD FLAC]/12 Stay.flac 24 MB
Post Malone - Beerbongs & Bentleys (2018) [CD FLAC]/17 Candy Paint.flac 24 MB
Post Malone - Beerbongs & Bentleys (2018) [CD FLAC]/14 Same Bitches (feat. GEazy & YG).flac 23 MB
Post Malone - Beerbongs & Bentleys (2018) [CD FLAC]/05 Takin' Shots.flac 23 MB
Post Malone - Beerbongs & Bentleys (2018) [CD FLAC]/06 Rockstar (feat. 21 Savage).flac 23 MB
Post Malone - Beerbongs & Bentleys (2018) [CD FLAC]/08 Psycho (feat. Ty Dolla $ign).flac 23 MB
Post Malone - Beerbongs & Bentleys (2018) [CD FLAC]/10 Ball For Me (feat. Nicki Minaj).flac 23 MB
Post Malone - Beerbongs & Bentleys (2018) [CD FLAC]/01 Paranoid.flac 23 MB
Post Malone - Beerbongs & Bentleys (2018) [CD FLAC]/16 92 Explorer.flac 22 MB
Post Malone - Beerbongs & Bentleys (2018) [CD FLAC]/04 Zack And Codeine.flac 22 MB
Post Malone - Beerbongs & Bentleys (2018) [CD FLAC]/02 Spoil My Night (feat. Swae Lee).flac 21 MB
Post Malone - Beerbongs & Bentleys (2018) [CD FLAC]/03 Rich & Sad.flac 20 MB
Post Malone - Beerbongs & Bentleys (2018) [CD FLAC]/15 Jonestown (Interlude).flac 9.8 MB
Post Malone - Beerbongs & Bentleys (2018) [CD FLAC]/folder.jpg 372 kB
Post Malone - Beerbongs & Bentleys (2018) [CD FLAC]/Beerbongs & Bentleys.log 14 kB
Post Malone - Beerbongs & Bentleys (2018) [CD FLAC]/Folder.auCDtect.txt 7.2 kB
Post Malone - Beerbongs & Bentleys (2018) [CD FLAC]/Beerbongs & Bentleys.cue 3.8 kB

Stream

Downloading Seeding Post Malone - beerbongs & bentleys - 2018 FLAC-MFA from to 0 peers.
of
0 b/s / ↗0 b/s