• 4
  • 92
  • done
Download
  • Patlabor early days [blu-ray, 1080p, x264, aac jpn]
  • 4.1 GB
  • miaomiaomiao
  • Patlabor early days blu ray 1080p x264 aac jpn
  • Anime - Raw

Description

alt text alt text alt text alt text

General Unique ID : 55597491616620638310032786302682197139 (0x29D3AFF90908149AC42A78C066B6EC93) Complete name : D:patlabor early days [blu-ray, 1080p, x264, ac3 jpn]Patlabor Early Days 01.mkv Format : Matroska Format version : Version 4 File size : 599 MiB Duration : 29 min 4 s Overall bit rate : 2 878 kb/s Encoded date : UTC 2022-07-17 07:54:07 Writing application : mkvmerge v68.0.0 ('The Curtain') 64-bit Writing library : libebml v1.4.2 + libmatroska v1.6.4

Video ID : 1 Format : AVC Format/Info : Advanced Video Codec Format profile : [email protected] Format settings : CABAC / 4 Ref Frames Format settings, CABAC : Yes Format settings, Reference : 4 frames Codec ID : VMPEG4/ISO/AVC Duration : 29 min 4 s Bit rate : 2 795 kb/s Width : 1 440 pixels Height : 1 080 pixels Display aspect ratio : 4:3 Frame rate mode : Constant Frame rate : 23.976 (24000/1001) FPS Color space : YUV Chroma subsampling : 4:2:0 Bit depth : 8 bits Scan type : Progressive Bits/(Pixel*Frame) : 0.075 Stream size : 581 MiB (97%) Title : Patlabor OAV1 - AVC - 1080p Writing library : x264 core 116 r2074 2641b9e Encoding settings : cabac=1 / ref=4 / deblock=1:-2:-2 / analyse=0x3:0x133 / me=umh / subme=10 / psy=1 / psyrd=0.80:0.00 / mixedref=1 / merange=24 / chromame=1 / trellis=2 / 8x8dct=1 / cqm=0 / deadzone=21,11 / fastpskip=0 / chromaqpoffset=-2 / threads=12 / slicedthreads=0 / nr=0 / decimate=0 / interlaced=0 / bluraycompat=0 / constrainedintra=0 / bframes=3 / bpyramid=2 / badapt=2 / bbias=0 / direct=3 / weightb=1 / opengop=0 / weightp=2 / keyint=240 / keyintmin=24 / scenecut=40 / intrarefresh=0 / rclookahead=50 / rc=2pass / mbtree=1 / bitrate=2795 / ratetol=1.0 / qcomp=0.60 / qpmin=0 / qpmax=69 / qpstep=4 / cplxblur=20.0 / qblur=0.5 / vbvmaxrate=50000 / vbvbufsize=50000 / nalhrd=none / ipratio=1.40 / aq=1:0.60 Language : Italian Default : Yes Forced : Yes

Audio ID : 2 Format : AAC LC Format/Info : Advanced Audio Codec Low Complexity Codec ID : A_AAC-2 Duration : 29 min 4 s Bit rate : 83.9 kb/s Channel(s) : 2 channels Channel layout : L R Sampling rate : 48.0 kHz Frame rate : 46.875 FPS (1024 SPF) Compression mode : Lossy Stream size : 17.5 MiB (3%) Title : AAC 2.0 Language : Japanese Default : No Forced : Yes


More at ibit.to
And ibit.uno
And ibit.am
And ibit.ws

Comments

Files

patlabor early days [blu-ray, 1080p, x264, ac3 jpn]/Patlabor Early Days 01.mkv 599 MB
patlabor early days [blu-ray, 1080p, x264, ac3 jpn]/Patlabor Early Days 02.mkv 599 MB
patlabor early days [blu-ray, 1080p, x264, ac3 jpn]/Patlabor Early Days 03.mkv 599 MB
patlabor early days [blu-ray, 1080p, x264, ac3 jpn]/Patlabor Early Days 04.mkv 598 MB
patlabor early days [blu-ray, 1080p, x264, ac3 jpn]/Patlabor Early Days 05.mkv 599 MB
patlabor early days [blu-ray, 1080p, x264, ac3 jpn]/Patlabor Early Days 06.mkv 600 MB
patlabor early days [blu-ray, 1080p, x264, ac3 jpn]/Patlabor Early Days 07.mkv 604 MB

Stream

Downloading Seeding Patlabor early days [blu-ray, 1080p, x264, aac jpn] from to 0 peers.
of
0 b/s / ↗0 b/s