• 0
  • 0
  • done
Sponsored Download
  • PALESTRINA - Missa sine nomine a 6 (2019) [Wilson; Toccata Classics]
  • 334 MB
  • caterina sforza
  • PALESTRINA Missa sine nomine 2019 Wilson Toccata Classics
  • Классическая и современная ака

Description

Palestrina - Missa sine nomine a 6; Accepit Jesus Calicem; Judica me Domine, etc.

image

Жанр : Classical sacred

Страна-производитель диска : Made in the EU

Год издания диска : 2019

Издатель (лейбл) : Toccata Classics

Номер по каталогу : TOCC0516

Дата записи : 2018

Аудиокодек : FLAC

Тип рипа : image+.cue

Битрейт аудио : lossless

Продолжительность : 01:17:10

Источник : релизер

сайт-источник/ник/другое : Roy Movrich; Caterina Sforza - доп. сканы (cue не трогал)

Наличие сканов в содержимом раздачи : да, авторские сканы tif + web pdf буклет

Треклист :

01: INGEGNERI - Super flumina Babylonis (publ. 1589)

PALESTRINA
02: Deus qui dedisti
03: Missa sine nomine a 6 (publ.1590) - I Kyrie
04: Judica me, Deus (publ. 1575)
05: Missa sine nomine a 6 (publ.1590) - II Gloria
06: Duo Seraphim clamabant (publ. 1589)
07: Missa sine nomine a 6 (publ.1590) - III Credo
08: Ricercar Quarti Toni
09: Missa sine nomine a 6 (publ.1590) - IV Sanctus
10: Missa sine nomine a 6 (publ.1590) - V Benedictus
11: Accepit Jesus Calicem (publ. 1575)
12: Missa sine nomine a 6 (publ.1590) - VI Agnus Dei
13: Ricercar Octavi Toni
14: Unus ex duobus (publ. 1569)
15: Tu es Petrus (publ. 1572)

16: INGEGNERI - Lauda Sion Salvatorem (publ. 1589)

Исполнители

`Giovanni Pierluigi da Palestrina (1525-1594)

Missa sine nomine a 6
Judica me, Deus
Duo Seraphim clamabant
Ricercar Quarti Toni
Accepit Jesus Calicem
Ricercar Octavi Toni
Unus ex duobus
Tu es Petrus

Marc'Antonio Ingegneri (c1535-1592)

Super flumina Babylonis
Lauda Sion Salvatorem

CHORUS: Choir of Girton College, Cambridge
ENSEMBLE: Royal Academy of Music and Royal Welsh College of Music and Drama
James Mitchell, Lucy Morrell - organ

Recording Date: July 12, 2018 - July 14, 2018
Recording Location: Chapel of Girton College, Cambridge, England
Release Date: March 15, 2019 `

Лог создания рипа

`Exact Audio Copy V1.2 from 12. August 2016

EAC extraction logfile from 31. May 2019, 22:09

Gareth Wilson / Missa sine nomine a 6

Used drive : MATSHITADVD-RAM UJ8G6 Adapter: 1 ID: 0

Read mode : Secure
Utilize accurate stream : Yes
Defeat audio cache : Yes
Make use of C2 pointers : No

Read offset correction : 103
Overread into Lead-In and Lead-Out : No
Fill up missing offset samples with silence : Yes
Delete leading and trailing silent blocks : No
Null samples used in CRC calculations : Yes
Used interface : Native Win32 interface for Win NT & 2000

Used output format : User Defined Encoder
Selected bitrate : 768 kBit/s
Quality : High
Add ID3 tag : No
Command line compressor : C:Program Files (x86)Exact Audio CopyFlacflac.exe
Additional command line options : -6 -V -T "ARTIST=%artist%" -T "TITLE=%src%" -T "ALBUM=%albumsrc%" -T "DATE=%year%" -T "TRACKNUMBER=%tracknr%" -T "GENRE=%genre%" -T "COMMENT=%comment%" -T "BAND=%albuminterpret%" -T "ALBUMARTIST=%albuminterpret%" -T "COMPOSER=%composer%" %haslyrics%--tag-from-file=LYRICS="%lyricsfile%"%haslyrics% -T "DISCNUMBER=%cdnumber%" -T "TOTALDISCS=%totalcds%" -T "TOTALTRACKS=%numtracks%" %hascover%--picture="%coverfile%"%hascover% %source% -o %dest%

TOC of the extracted CD

Track | Start | Length | Start sector | End sector


1 | 0:00.00 | 5:30.46 | 0 | 24795
2 | 5:30.46 | 6:02.34 | 24796 | 51979
3 | 11:33.05 | 4:47.60 | 51980 | 73564
4 | 16:20.65 | 4:31.22 | 73565 | 93911
5 | 20:52.12 | 6:05.11 | 93912 | 121297
6 | 26:57.23 | 3:04.05 | 121298 | 135102
7 | 30:01.28 | 9:10.11 | 135103 | 176363
8 | 39:11.39 | 3:19.60 | 176364 | 191348
9 | 42:31.24 | 2:38.71 | 191349 | 203269
10 | 45:10.20 | 2:44.20 | 203270 | 215589
11 | 47:54.40 | 6:04.42 | 215590 | 242931
12 | 53:59.07 | 6:08.73 | 242932 | 270604
13 | 60:08.05 | 2:35.20 | 270605 | 282249
14 | 62:43.25 | 4:50.24 | 282250 | 304023
15 | 67:33.49 | 6:52.74 | 304024 | 334997
16 | 74:26.48 | 2:51.45 | 334998 | 347867

Range status and errors

Selected range

Filename C:UsersRoyMusicPALESTRINA - Missa sine nomine a 6 (2018) [Wilson; Toccata Classics]CD (FLAC + CUE)Giovanni Pierluigi da Palestrina - Missa sine nomine a 6.wav

Peak level 83.2 %
Extraction speed 2.8 X
Range quality 100.0 %
Test CRC DCA8D2B1
Copy CRC DCA8D2B1
Copy OK

No errors occurred

AccurateRip summary

Track 1 not present in database
Track 2 not present in database
Track 3 not present in database
Track 4 not present in database
Track 5 not present in database
Track 6 not present in database
Track 7 not present in database
Track 8 not present in database
Track 9 not present in database
Track 10 not present in database
Track 11 not present in database
Track 12 not present in database
Track 13 not present in database
Track 14 not present in database
Track 15 not present in database
Track 16 not present in database

None of the tracks are present in the AccurateRip database

End of status report

---- CUETools DB Plugin V2.1.6

[CTDB TOCID: LVptuDu.kTx9q2cxNRhFIffegn0-] disk not present in database
Submit result: LVptuDu.kTx9q2cxNRhFIffegn0- has been uploaded

==== Log checksum 6F3DC57E79E42D10B0EF4753FB10B2CDCF22DC1D63D7ECD9B3FD18365A9BB8FC ==== `

Содержание индексной карты (.CUE)

REM DATE 2018 REM DISCID E6121E10 REM COMMENT "ExactAudioCopy v1.2" CATALOG 5060113445162 PERFORMER "Gareth Wilson; James Mitchell; Lucy Morrell, Choir of Girton College, Cambridge, Royal Academy of Music and Royal Welsh College of Music and Drama" TITLE "Missa sine nomine a 6" FILE "Giovanni Pierluigi da Palestrina - Missa sine nomine a 6.flac" WAVE TRACK 01 AUDIO TITLE "INGEGNERI - Super flumina Babylonis (publ. 1589)" PERFORMER "Gareth Wilson; Choir of Girton College, Cambridge; Royal Academy of Music and Royal Welsh College of Music and Drama" ISRC GBJZY1951601 INDEX 01 00:00:00 TRACK 02 AUDIO TITLE "PALESTRINA - Deus qui dedisti" PERFORMER "Gareth Wilson; Choir of Girton College, Cambridge; Royal Academy of Music and Royal Welsh College of Music and Drama" ISRC GBJZY1951602 INDEX 01 05:30:46 TRACK 03 AUDIO TITLE "PALESTRINA; Missa sine nomine a 6 (publ.1590) - I Kyrie" PERFORMER "Gareth Wilson; Choir of Girton College, Cambridge; Royal Academy of Music and Royal Welsh College of Music and Drama" ISRC GBJZY1951603 REM INDEX 00 11:32:45 INDEX 01 11:33:05 TRACK 04 AUDIO TITLE "PALESTRINA - Judica me, Deus (publ. 1575)" PERFORMER "Gareth Wilson; Choir of Girton College, Cambridge; Royal Academy of Music and Royal Welsh College of Music and Drama" ISRC GBJZY1951604 REM INDEX 00 16:19:50 INDEX 01 16:20:65 TRACK 05 AUDIO TITLE "PALESTRINA; Missa sine nomine a 6 (publ.1590) - II Gloria" PERFORMER "Gareth Wilson; Choir of Girton College, Cambridge; Royal Academy of Music and Royal Welsh College of Music and Drama" ISRC GBJZY1951605 REM INDEX 00 20:50:73 INDEX 01 20:52:12 TRACK 06 AUDIO TITLE "PALESTRINA - Duo Seraphim clamabant (publ. 1589)" PERFORMER "Gareth Wilson; Choir of Girton College, Cambridge; Royal Academy of Music and Royal Welsh College of Music and Drama" ISRC GBJZY1951606 REM INDEX 00 26:56:08 INDEX 01 26:57:23 TRACK 07 AUDIO TITLE "PALESTRINA; Missa sine nomine a 6 (publ.1590) - III Credo" PERFORMER "Gareth Wilson; Choir of Girton College, Cambridge; Royal Academy of Music and Royal Welsh College of Music and Drama" ISRC GBJZY1951607 REM INDEX 00 30:00:13 INDEX 01 30:01:28 TRACK 08 AUDIO TITLE "PALESTRINA - Ricercar Quarti Toni" PERFORMER "James Mitchell" ISRC GBJZY1951608 REM INDEX 00 39:10:24 INDEX 01 39:11:39 TRACK 09 AUDIO TITLE "PALESTRINA; Missa sine nomine a 6 (publ.1590) - IV Sanctus" PERFORMER "Gareth Wilson; Choir of Girton College, Cambridge; Royal Academy of Music and Royal Welsh College of Music and Drama" ISRC GBJZY1951609 REM INDEX 00 42:30:09 INDEX 01 42:31:24 TRACK 10 AUDIO TITLE "PALESTRINA; Missa sine nomine a 6 (publ.1590) - V Benedictus" PERFORMER "Gareth Wilson; Choir of Girton College, Cambridge; Royal Academy of Music and Royal Welsh College of Music and Drama" ISRC GBJZY1951610 INDEX 01 45:10:20 TRACK 11 AUDIO TITLE "PALESTRINA - Accepit Jesus Calicem (publ. 1575)" PERFORMER "Gareth Wilson; Choir of Girton College, Cambridge; Royal Academy of Music and Royal Welsh College of Music and Drama" ISRC GBJZY1951611 REM INDEX 00 47:53:25 INDEX 01 47:54:40 TRACK 12 AUDIO TITLE "PALESTRINA; Missa sine nomine a 6 (publ.1590) - VI Agnus Dei" PERFORMER "Gareth Wilson; Choir of Girton College, Cambridge; Royal Academy of Music and Royal Welsh College of Music and Drama" ISRC GBJZY1951612 INDEX 01 53:59:07 TRACK 13 AUDIO TITLE "PALESTRINA - Ricercar Octavi Toni" PERFORMER "Lucy Morrell" ISRC GBJZY1951613 REM INDEX 00 60:06:65 INDEX 01 60:08:05 TRACK 14 AUDIO TITLE "PALESTRINA - Unus ex duobus (publ. 1569)" PERFORMER "Gareth Wilson" ISRC GBJZY1951614 REM INDEX 00 62:42:10 INDEX 01 62:43:25 TRACK 15 AUDIO TITLE "PALESTRINA - Tu es Petrus (publ. 1572)" PERFORMER "Gareth Wilson; Choir of Girton College, Cambridge; Royal Academy of Music and Royal Welsh College of Music and Drama" ISRC GBJZY1951615 REM INDEX 00 67:33:35 INDEX 01 67:33:49 TRACK 16 AUDIO TITLE "INGEGNERI - Lauda Sion Salvatorem (publ. 1589)" PERFORMER "Gareth Wilson; Choir of Girton College, Cambridge; Royal Academy of Music and Royal Welsh College of Music and Drama" ISRC GBJZY1951616 REM INDEX 00 74:25:33 INDEX 01 74:26:48

About

Renaissance polyphony is generally held to be stately, calm, reassuring. But this programme of Palestrina’s six-part Missa sine nomine, complemented by five of his motets and three by Marc'Antonio Ingegneri (c. 1535/36–92), was recorded after the Choir of Girton College, Cambridge, had undertaken a tour of Israel and Palestine. There the music and its texts (‘How can we sing the Lord’s song in a strange land?’) took on an extraordinary poignancy, with the dispossession and desperation of thousands of years ago animating the restrained dignity of Palestrina’s counterpoint with an unexpectedly topical intensity. The Girton College Chapel Choir has gained an impressive reputation as one of the most distinguished mixed-voice choirs at the University of Cambridge. As an international prize-winning ensemble comprising around 26 students, it has built its reputation through regular choral services in Girton College Chapel and frequent performances in parish churches and cathedrals across the UK. Choir members are all undergraduate or graduate students at Cambridge University.

Editorial Reviews

Renaissance polyphony is generally held to be stately, calm, reassuring. But this programme of Palestrinas six-part Missa sine nomine, complemented by five of his motets and three by Marc'Antonio Ingegneri (c. 1535/3692), was recorded after the Choir of Girton College, Cambridge, had undertaken a tour of Israel and Palestine. There the music and its texts (How can we sing the Lords song in a strange land?) took on an extraordinary poignancy, with the dispossession and desperation of thousands of years ago animating the restrained dignity of Palestrinas counterpoint with an unexpectedly topical intensity. The Girton College Chapel Choir has gained an impressive reputation as one of the most distinguished mixed-voice choirs at the University of Cambridge. As an international prize-winning ensemble comprising around 26 students, it has built its reputation through regular choral services in Girton College Chapel and frequent performances in parish churches and cathedrals across the UK. Choir members are all undergraduate or graduate students at Cambridge University.


More at ibit.to
And ibit.uno
And ibit.ws

Comments

Files

PALESTRINA - Missa sine nomine a 6 (2019) [Wilson; Toccata Classics]info sheet.txt 1.3 kB
PALESTRINA - Missa sine nomine a 6 (2019) [Wilson; Toccata Classics]Giovanni Pierluigi da Palestrina - Missa sine nomine a 6.cue 4.5 kB
PALESTRINA - Missa sine nomine a 6 (2019) [Wilson; Toccata Classics]Giovanni Pierluigi da Palestrina - Missa sine nomine a 6.corrected.cue 4.5 kB
PALESTRINA - Missa sine nomine a 6 (2019) [Wilson; Toccata Classics]Giovanni Pierluigi da Palestrina - Missa sine nomine a 6.log 7.8 kB
PALESTRINA - Missa sine nomine a 6 (2019) [Wilson; Toccata Classics]coversback.jpg 200 kB
PALESTRINA - Missa sine nomine a 6 (2019) [Wilson; Toccata Classics]coversfront.jpg 232 kB
PALESTRINA - Missa sine nomine a 6 (2019) [Wilson; Toccata Classics]coverstray.jpg 244 kB
PALESTRINA - Missa sine nomine a 6 (2019) [Wilson; Toccata Classics]coversfront 2.jpg 275 kB
PALESTRINA - Missa sine nomine a 6 (2019) [Wilson; Toccata Classics]booklet (TOCC 0516).pdf 3.0 MB
PALESTRINA - Missa sine nomine a 6 (2019) [Wilson; Toccata Classics]scansbooklet cover.tif 4.6 MB
PALESTRINA - Missa sine nomine a 6 (2019) [Wilson; Toccata Classics]scansCD.tif 6.6 MB
PALESTRINA - Missa sine nomine a 6 (2019) [Wilson; Toccata Classics]scanstray inlay - rear, inside (with side flaps).tif 7.5 MB
PALESTRINA - Missa sine nomine a 6 (2019) [Wilson; Toccata Classics]scanstray inlay - rear, outside (with side flaps).tif 7.5 MB
PALESTRINA - Missa sine nomine a 6 (2019) [Wilson; Toccata Classics]Giovanni Pierluigi da Palestrina - Missa sine nomine a 6.flac 304 MB

Stream

Downloading Seeding PALESTRINA - Missa sine nomine a 6 (2019) [Wilson; Toccata Classics] from to 0 peers.
of
0 b/s / ↗0 b/s