• 4
  • 0
  • done
Download
  • Ooops! The Adventure Continues (Тоби Генкель
  • 6.3 GB
  • undead.joe
  • Ooops Adventure Continues
  • Иностранные мультфильмы (HD Vi

Description

Упс! Приплыли... / Ooops! The Adventure Continues

image

Страна : Ирландия, Люксембург

Жанр : Мультфильм, комедия, приключения

Продолжительность : 01:26:09

Год выпуска : 2020

Перевод : Профессиональный (дублированный)

Русские субтитры : нет

Режиссёр : Тоби Генкель / Toby Genkel, Шон МакКормак / Sean McCormack

Роли озвучивали : Макс Кэролан, Ава Коннолли, Дермот Магеннис, Тара Флинн, Мэри Мюррэй, Брендан Макдональд, Карли Кейн, Алан Стэнфорд, Эйлин Митен, Пол Тайлак

Описание : После 147 дней в открытом море дела на ковчеге не очень: запасы еды заканчиваются, хищники начинают жадно посматривать на травоядных, а земля так и не показалась. Но все меняет случай. Нечаянно оказавшись за бортом, Финни и Леа обнаруживают райский остров, на котором всем нашлось бы место. Осталось только спросить, что по этому поводу думают обитатели этого острова…

Качество : BDRip 1080p

Формат : MKV

Видео : MPEG-4 AVC, 9180 Кбит/с, 1920x1040

Аудио : AC3, 6 ch, 384 Кбит/с [Русский]

Аудио 2 : AC3, 2 ch, 192 Кбит/с [украинский]

Аудио 3 : AC3, 6 ch, 640 Кбит/с [английский]

Субтитры : Английские

Подробные технические данные

`
General
Unique ID : 201164298846593451464574865691020203666 (0x9756D5AE2E2D7D60A4FE42E294F19692)
Complete name : D:VideoUps.Priplyili.2020.BDRip.1080p.ELEKTRI4KA.UNIONGANG.mkv
Format : Matroska
Format version : Version 4 / Version 2
File size : 6.26 GiB
Duration : 1 h 26 min
Overall bit rate : 10.4 Mb/s
Movie name : Ups.Priplyili.2020.BDRip.1080p.ELEKTRI4KA.UNIONGANG.
Encoded date : UTC 2021-05-27 13:27:04
Writing application : mkvmerge v8.3.0 ('Over the Horizon') 64bit
Writing library : libebml v1.3.1 + libmatroska v1.4.2

Video
ID : 1
Format : AVC
Format/Info : Advanced Video Codec
Format profile : [email protected]
Format settings, CABAC : Yes
Format settings, RefFrames : 4 frames
Codec ID : VMPEG4/ISO/AVC
Duration : 1 h 26 min
Bit rate : 9 180 kb/s
Width : 1 920 pixels
Height : 1 040 pixels
Display aspect ratio : 1.85:1
Frame rate mode : Constant
Frame rate : 24.000 FPS
Color space : YUV
Chroma subsampling : 4:2:0
Bit depth : 8 bits
Scan type : Progressive
Bits/(Pixel*Frame) : 0.192
Stream size : 5.52 GiB (88%)
Writing library : x264 core 157 r2969 d4099dd
Encoding settings : cabac=1 / ref=4 / deblock=1:-2:-2 / analyse=0x3:0x133 / me=umh / subme=11 / psy=1 / psy
rd=0.90:0.00 / mixedref=1 / merange=32 / chromame=1 / trellis=2 / 8x8dct=1 / cqm=0 / deadzone=21,11 / fastpskip=0 / chromaqpoffset=-2 / threads=9 / lookaheadthreads=1 / slicedthreads=0 / nr=0 / decimate=0 / interlaced=0 / bluraycompat=0 / constrainedintra=0 / bframes=8 / bpyramid=2 / badapt=2 / bbias=0 / direct=3 / weightb=1 / opengop=0 / weightp=2 / keyint=230 / keyintmin=23 / scenecut=40 / intrarefresh=0 / rclookahead=80 / rc=crf / mbtree=0 / crf=18.5 / qcomp=0.60 / qpmin=0 / qpmax=69 / qpstep=4 / vbvmaxrate=62500 / vbvbufsize=78125 / crfmax=0.0 / nalhrd=none / filler=0 / ipratio=1.30 / pb_ratio=1.20 / aq=3:0.90
Language : English
Default : Yes
Forced : No
Color range : Limited
Color primaries : BT.709
Transfer characteristics : BT.709
Matrix coefficients : BT.709

Audio #1
ID : 2
Format : AC-3
Format/Info : Audio Coding 3
Format settings, Endianness : Big
Codec ID : A_AC3
Duration : 1 h 26 min
Bit rate mode : Constant
Bit rate : 384 kb/s
Channel(s) : 6 channels
Channel positions : Front: L C R, Side: L R, LFE
Sampling rate : 48.0 kHz
Frame rate : 31.250 FPS (1536 SPF)
Bit depth : 16 bits
Compression mode : Lossy
Stream size : 237 MiB (4%)
Title : DUB (iTunes)
Language : Russian
Service kind : Complete Main
Default : Yes
Forced : Yes

Audio #2
ID : 3
Format : AC-3
Format/Info : Audio Coding 3
Format settings, Endianness : Big
Codec ID : A_AC3
Duration : 1 h 26 min
Bit rate mode : Constant
Bit rate : 192 kb/s
Channel(s) : 2 channels
Channel positions : Front: L R
Sampling rate : 48.0 kHz
Frame rate : 31.250 FPS (1536 SPF)
Bit depth : 16 bits
Compression mode : Lossy
Stream size : 118 MiB (2%)
Title : DUB
Language : Ukrainian
Service kind : Complete Main
Default : No
Forced : No

Audio #3
ID : 4
Format : AC-3
Format/Info : Audio Coding 3
Format settings, Endianness : Big
Codec ID : A_AC3
Duration : 1 h 26 min
Bit rate mode : Constant
Bit rate : 640 kb/s
Channel(s) : 6 channels
Channel positions : Front: L C R, Side: L R, LFE
Sampling rate : 48.0 kHz
Frame rate : 31.250 FPS (1536 SPF)
Bit depth : 16 bits
Compression mode : Lossy
Stream size : 394 MiB (6%)
Title : Original
Language : English
Service kind : Complete Main
Default : No
Forced : No
`

Скриншоты

image image image image


More at ibit.to
And ibit.uno
And ibit.am
And ibit.ws

Comments

Files

Stream

Downloading Seeding Ooops! The Adventure Continues (Тоби Генкель from to 0 peers.
of
0 b/s / ↗0 b/s