• 1
  • 3
  • done
Sponsored Downloadondemand_video
  • NOS4A2 - Season 1 (AlexFilm) WEB-DL 720p
  • 6.7 GB
  • igor.volkov
  • NOS4A2 Season AlexFilm WEB 720p
  • Зарубежные сериалы (HD Video)
68%

NOS4A2: Season 1(2019)

  • 1
  • Drama Sci-Fi & Fantasy
  • A young Victoria "Vic" McQueen discovers she has the power to unlock portals that help her find lost objects. As she delves further into this hidden universe, she encounters many other "inscape travelers" - some benevolent, and some who have been corrupted by their power. When Vic encounters Charlie Manx, an immortal who stays that way by feeding off of the souls of children, she makes a sworn enemy of Manx.

    expand_more
    English

    Description



    Страна Рождества / NOS4A2

    1 сезон, 1-3 серии из 10



    image

    Год выпуска : 2019

    Страна : США

    Жанр : ужасы

    Продолжительность : ~ 00:55:00

    Перевод : Профессиональный (многоголосый закадровый)

    (AlexFilm)


    Режиссер : Джон Шибан, Кари Скогланд, Тим Соутэм

    В ролях : Закари Куинто, Эшли Каммингс, Оулавюр Дарри Оулафссон, Эбон Мосс-Бакрак, Вирджиния Кулл, Далтон Хэррод, Крис МакКинни, Джейми Ньюманн, Дэрби Кэмп и т.д.


    Описание : Юная Виктория МакКуин обнаруживает в себе уникальную способность открывать портал в мир потерянных вещей. Погружаясь все глубже в эту скрытую от людских глаз вселенную, она встречает множество других таких же «путешественников» — некоторые из них оказываются вполне благожелательными, а другие безнадежно испорчены своим даром. Однажды Виктория встречает Чарли Мэнкса: узнав, что он питается детскими душами и благодаря им остается бессмертным, героиня решает избавить мир от этого существа.


    Релиз : image

    Перевод :

    Александра Елизарова

    Монтаж и сведение звука :

    Михаил Шорыгин, Константин Федосеев

    Роли озвучивали :

    Рита Сахно

    Екатерина Муравицкая

    Светлана Чистохина

    Кирилл Патрино

    Михаил Цареградский

    Константин Федосеев


    Сэмпл : http://sendfile.su/1499365


    image image image


    Качество : WEB-DL 720p

    Формат : MKV

    Видео : 1280х720 (16:9), 23.976 fps, MPEG-4 AVC ~6000 kbps avg, 0.272 bit/pixel

    Аудио Rus : 48 kHz, AC3 Dolby Digital, 3/2 (L,C,R,l,r) + LFE ch, ~384.00 kbps

    Аудио Eng : 48 kHz, AC3 Dolby Digital, 3/2 (L,C,R,l,r) + LFE ch, ~384.00 kbps

    Субтитры : English, Bengali, Danish, German, Greek, Finnish, French, Hindi, Italian, Japanese, Marathi, Norwegian Bokmal, Dutch, Swedish, Tamil, Telugu, Chinese

    Реклама : аудио (два раза, в начале 10 и в конце 10 сек.)


    Озвученный трейлер

    https://vimeo.com/341245614

    Скриншоты

    image image image image

    MediaInfo

    Формат : Matroska
    Версия формата : Version 4 / Version 2
    Размер файла : 2,57 Гбайт
    Продолжительность : 55 м. 26 с.
    Общий поток : 6628 Кбит/сек
    Название фильма : NOS4A2 1x01 @ AlexFilm
    Дата кодирования : UTC 2019-06-11 00:50:30
    Программа кодирования : mkvmerge v7.9.0 ('Birds') 64bit
    Библиотека кодирования : libebml v1.3.1 + libmatroska v1.4.2

    Видео
    Идентификатор : 1
    Формат : AVC
    Формат/Информация : Advanced Video Codec
    Профиль формата : High@L3.1
    Параметр CABAC формата : Да
    Параметр ReFrames формата : 4 кадра
    Идентификатор кодека : V_MPEG4/ISO/AVC
    Продолжительность : 55 м. 26 с.
    Вид битрейта : Постоянный
    Битрейт : 6000 Кбит/сек
    Ширина : 1280 пикселей
    Высота : 720 пикселей
    Соотношение сторон : 16:9
    Режим частоты кадров : Постоянный
    Частота кадров : 23,976 (24000/1001) кадра/сек
    Цветовое пространство : YUV
    Субдискретизация насыщенности : 4:2:0
    Битовая глубина : 8 бит
    Тип развёртки : Прогрессивная
    Бит/(Пиксели*Кадры) : 0.272
    Размер потока : 2,27 Гбайт (88%)
    Язык : English
    Default : Да
    Forced : Нет
    Цветовой диапазон : Limited
    Основные цвета : BT.709
    Характеристики трансфера : BT.709
    Коэффициенты матрицы : BT.709

    Аудио #1
    Идентификатор : 2
    Формат : AC-3
    Формат/Информация : Audio Coding 3
    Расширение режима : CM (complete main)
    Параметр Endianness формата : Big
    Идентификатор кодека : A_AC3
    Продолжительность : 55 м. 26 с.
    Вид битрейта : Постоянный
    Битрейт : 384 Кбит/сек
    Каналы : 6 каналов
    Расположение каналов : Front: L C R, Side: L R, LFE
    Частота : 48,0 КГц
    Частота кадров : 31,250 кадров/сек (1536 spf)
    Метод сжатия : С потерями
    Размер потока : 152 Мбайт (6%)
    Заголовок : DD5.1 AlexFilm
    Язык : Russian
    Default : Да
    Forced : Нет

    Аудио #2
    Идентификатор : 3
    Формат : AC-3
    Формат/Информация : Audio Coding 3
    Расширение режима : CM (complete main)
    Параметр Endianness формата : Big
    Идентификатор кодека : A_AC3
    Продолжительность : 55 м. 26 с.
    Вид битрейта : Постоянный
    Битрейт : 384 Кбит/сек
    Каналы : 6 каналов
    Расположение каналов : Front: L C R, Side: L R, LFE
    Частота : 48,0 КГц
    Частота кадров : 31,250 кадров/сек (1536 spf)
    Метод сжатия : С потерями
    Размер потока : 152 Мбайт (6%)
    Заголовок : DD5.1 Original
    Язык : English
    Default : Нет
    Forced : Нет

    Текст #1
    Идентификатор : 4
    Формат : UTF-8
    Идентификатор кодека : S_TEXT/UTF8
    Идентификатор кодека/Информация : UTF-8 Plain Text
    Продолжительность : 53 м. 39 с.
    Битрейт : 44 бит/сек
    Count of elements : 560
    Размер потока : 17,6 Кбайт (0%)
    Язык : English
    Default : Нет
    Forced : Нет

    Текст #2
    Идентификатор : 5
    Формат : UTF-8
    Идентификатор кодека : S_TEXT/UTF8
    Идентификатор кодека/Информация : UTF-8 Plain Text
    Продолжительность : 54 м. 56 с.
    Битрейт : 122 бит/сек
    Count of elements : 614
    Размер потока : 49,4 Кбайт (0%)
    Язык : Bengali
    Default : Нет
    Forced : Нет

    Текст #3
    Идентификатор : 6
    Формат : UTF-8
    Идентификатор кодека : S_TEXT/UTF8
    Идентификатор кодека/Информация : UTF-8 Plain Text
    Продолжительность : 53 м. 39 с.
    Битрейт : 43 бит/сек
    Count of elements : 519
    Размер потока : 17,2 Кбайт (0%)
    Язык : Danish
    Default : Нет
    Forced : Нет

    Текст #4
    Идентификатор : 7
    Формат : UTF-8
    Идентификатор кодека : S_TEXT/UTF8
    Идентификатор кодека/Информация : UTF-8 Plain Text
    Продолжительность : 53 м. 39 с.
    Битрейт : 45 бит/сек
    Count of elements : 550
    Размер потока : 17,9 Кбайт (0%)
    Язык : German
    Default : Нет
    Forced : Нет

    Текст #5
    Идентификатор : 8
    Формат : UTF-8
    Идентификатор кодека : S_TEXT/UTF8
    Идентификатор кодека/Информация : UTF-8 Plain Text
    Продолжительность : 54 м. 25 с.
    Битрейт : 77 бит/сек
    Count of elements : 577
    Размер потока : 31,1 Кбайт (0%)
    Язык : Greek
    Default : Нет
    Forced : Нет

    Текст #6
    Идентификатор : 9
    Формат : UTF-8
    Идентификатор кодека : S_TEXT/UTF8
    Идентификатор кодека/Информация : UTF-8 Plain Text
    Продолжительность : 53 м. 39 с.
    Битрейт : 43 бит/сек
    Count of elements : 514
    Размер потока : 17,0 Кбайт (0%)
    Язык : Finnish
    Default : Нет
    Forced : Нет

    Текст #7
    Идентификатор : 10
    Формат : UTF-8
    Идентификатор кодека : S_TEXT/UTF8
    Идентификатор кодека/Информация : UTF-8 Plain Text
    Продолжительность : 55 м. 2 с.
    Битрейт : 43 бит/сек
    Count of elements : 582
    Размер потока : 17,5 Кбайт (0%)
    Язык : French
    Default : Нет
    Forced : Нет

    Текст #8
    Идентификатор : 11
    Формат : UTF-8
    Идентификатор кодека : S_TEXT/UTF8
    Идентификатор кодека/Информация : UTF-8 Plain Text
    Продолжительность : 54 м. 56 с.
    Битрейт : 113 бит/сек
    Count of elements : 614
    Размер потока : 45,6 Кбайт (0%)
    Язык : Hindi
    Default : Нет
    Forced : Нет

    Текст #9
    Идентификатор : 12
    Формат : UTF-8
    Идентификатор кодека : S_TEXT/UTF8
    Идентификатор кодека/Информация : UTF-8 Plain Text
    Продолжительность : 54 м. 25 с.
    Битрейт : 47 бит/сек
    Count of elements : 607
    Размер потока : 18,7 Кбайт (0%)
    Язык : Italian
    Default : Нет
    Forced : Нет

    Текст #10
    Идентификатор : 13
    Формат : UTF-8
    Идентификатор кодека : S_TEXT/UTF8
    Идентификатор кодека/Информация : UTF-8 Plain Text
    Продолжительность : 54 м. 24 с.
    Битрейт : 37 бит/сек
    Count of elements : 587
    Размер потока : 15,0 Кбайт (0%)
    Язык : Japanese
    Default : Нет
    Forced : Нет

    Текст #11
    Идентификатор : 14
    Формат : UTF-8
    Идентификатор кодека : S_TEXT/UTF8
    Идентификатор кодека/Информация : UTF-8 Plain Text
    Продолжительность : 54 м. 56 с.
    Битрейт : 106 бит/сек
    Count of elements : 614
    Размер потока : 42,7 Кбайт (0%)
    Язык : Marathi
    Default : Нет
    Forced : Нет

    Текст #12
    Идентификатор : 15
    Формат : UTF-8
    Идентификатор кодека : S_TEXT/UTF8
    Идентификатор кодека/Информация : UTF-8 Plain Text
    Продолжительность : 53 м. 39 с.
    Битрейт : 44 бит/сек
    Count of elements : 515
    Размер потока : 17,6 Кбайт (0%)
    Язык : Norwegian Bokmal
    Default : Нет
    Forced : Нет

    Текст #13
    Идентификатор : 16
    Формат : UTF-8
    Идентификатор кодека : S_TEXT/UTF8
    Идентификатор кодека/Информация : UTF-8 Plain Text
    Продолжительность : 53 м. 39 с.
    Битрейт : 43 бит/сек
    Count of elements : 557
    Размер потока : 16,9 Кбайт (0%)
    Язык : Dutch
    Default : Нет
    Forced : Нет

    Текст #14
    Идентификатор : 17
    Формат : UTF-8
    Идентификатор кодека : S_TEXT/UTF8
    Идентификатор кодека/Информация : UTF-8 Plain Text
    Продолжительность : 53 м. 39 с.
    Битрейт : 41 бит/сек
    Count of elements : 515
    Размер потока : 16,5 Кбайт (0%)
    Язык : Swedish
    Default : Нет
    Forced : Нет

    Текст #15
    Идентификатор : 18
    Формат : UTF-8
    Идентификатор кодека : S_TEXT/UTF8
    Идентификатор кодека/Информация : UTF-8 Plain Text
    Продолжительность : 54 м. 56 с.
    Битрейт : 141 бит/сек
    Count of elements : 614
    Размер потока : 56,7 Кбайт (0%)
    Язык : Tamil
    Default : Нет
    Forced : Нет

    Текст #16
    Идентификатор : 19
    Формат : UTF-8
    Идентификатор кодека : S_TEXT/UTF8
    Идентификатор кодека/Информация : UTF-8 Plain Text
    Продолжительность : 54 м. 56 с.
    Битрейт : 144 бит/сек
    Count of elements : 614
    Размер потока : 58,1 Кбайт (0%)
    Язык : Telugu
    Default : Нет
    Forced : Нет

    Текст #17
    Идентификатор : 20
    Формат : UTF-8
    Идентификатор кодека : S_TEXT/UTF8
    Идентификатор кодека/Информация : UTF-8 Plain Text
    Продолжительность : 54 м. 56 с.
    Битрейт : 41 бит/сек
    Count of elements : 617
    Размер потока : 16,7 Кбайт (0%)
    Язык : Chinese
    Default : Нет
    Forced : Нет

    Внимание! Раздача ведётся путём добавления новых серий

    Внимание! Раздача ведётся путём добавления новых серий; при каждом добавлении создаётся новый торрент. Чтобы начать докачку новой серии, пользователям необходимо сделать следующее:
    (1) остановить скачивание,
    (2) удалить старый торрент у себя из клиента (старые серии удалять не надо),
    (3) скачать новый торрент и запустить его у себя в клиенте вместо старого, при этом указать клиенту путь в старую папку куда и должно происходить скачивание новых серий.
    Ваш клиент при этом должен произвести хеширование (проверку) старой папки (если не производит сам - помогите ему сделать это), и будет докачивать только те серии которых у вас ещё нет. Старые серии при этом не удаляются, а продолжают раздаваться!
    Eсли вы уже удалили старые серии, то предотвратить повторную закачку старых серий можно, отжав галочку в соответствующих местах при запуске нового торрента. По возможности, желательно не удалять старые серии как можно дольше чтобы релизёр не столько продолжал раздавать старые серии, а смог сконцентрироваться на новых.


    Ссылка на предыдущие и альтернативные раздачи



    More at ibit.to
    And ibit.uno
    And ibit.ws

    Reviews

    Comments

    2 months ago

    Спасибо.

    Files

    NOS4A2 - Season 1 (AlexFilm) WEB-DL 720pNOS4A2.s01e02.WEB-DL.720p.Rus.Eng.AlexFilm.mkv 1.7 GB
    NOS4A2 - Season 1 (AlexFilm) WEB-DL 720pNOS4A2.s01e03.WEB-DL.720p.Rus.Eng.AlexFilm.mkv 2.3 GB
    NOS4A2 - Season 1 (AlexFilm) WEB-DL 720pNOS4A2.s01e01.WEB-DL.720p.Rus.Eng.AlexFilm.mkv 2.8 GB

    Stream

    Downloading Seeding NOS4A2 - Season 1 (AlexFilm) WEB-DL 720p from to 0 peers.
    of
    0 b/s / ↗0 b/s