• 1
  • 0
  • 1,948
  • done
Secure Download
Warnning: Do NOT Get Caught While Downloading!!
Your IP : - Country : - City:
Your ISP TRACKS Your Online Activity! Hide your IP ADDRESS with a VPN!
Bonus: No Restrictions, Fines or Annoying ADS with any VPN Purchased!
PROTECT YOURSELF & SUPPORT US! Purchase a VPN Today!

Description

My Hero Academia (Boku no Hero Academia) Season 1 Complete (EngDub) 720p x265 Download

image

Quote:

__ People are not born equal, a realization that 4-year-old Midoriya Izuku faced when bullied by his classmates who had unique special powers. Izuku was one of the rare cases where he was born with absolutely no unique powers. This did not stop Izuku from pursuing his dream, a dream of becoming a great hero like the legendary All-Might. To become the great hero he hopelessly wants to become, he now will join the ranks of one of the highest rated “Hero Academies” in the country: Yueiko. With the help of his idol All-Might, will he be able to claim the ranks and become a true hero? __

..::File Specs::..

General

Format version : Version 4 / Version 2

File size : 162 MiB

Duration : 24 min 31 s

Overall bit rate : 924 kb/s

Video

ID : 1

Format : HEVC

Format/Info : High Efficiency Video Coding

Format profile : Main [email protected]@Main

Codec ID : V_MPEGH/ISO/HEVC

Duration : 24 min 31 s

Bit rate : 732 kb/s

Width : 1 280 pixels

Height : 720 pixels

Display aspect ratio : 16:9

Frame rate mode : Constant

Frame rate : 23.976 (24000/1001) FPS

Color space : YUV

Chroma subsampling : 4:2:0

Bit depth : 10 bits

Bits/(Pixel*Frame) : 0.033

Stream size : 128 MiB (79%)

Audio

ID : 2

Format : AAC

Format/Info : Advanced Audio Codec

Format profile : LC

Codec ID : A_AAC

Duration : 24 min 29 s

Bit rate : 192 kb/s

Channel(s) : 2 channels

Channel positions : Front: L R

Sampling rate : 44.1 kHz

Frame rate : 43.066 FPS (1024 spf)

Compression mode : Lossy

Stream size : 33.2 MiB (20%)

Language : English

Text #1

ID : 3

Format : ASS

Codec ID : S_TEXT/ASS

Codec ID/Info : Advanced Sub Station Alpha

Duration : 19 min 33 s

Bit rate : 11 b/s

Count of elements : 19

Compression mode : Lossless

Stream size : 1.66 KiB (0%)

Title : Signs & Songs

Language : English

Text #2

ID : 4

Format : ASS

Codec ID : S_TEXT/ASS

Codec ID/Info : Advanced Sub Station Alpha

Duration : 24 min 28 s

Bit rate : 130 b/s

Count of elements : 411

Compression mode : Lossless

Stream size : 23.4 KiB (0%)

Title : Merchant Subs

Language : English

..::ScreenShots::..

image

image

image

================================================================

Seed Seed Seed Seed Seed Seed Seed Seed Seed Seed Seed Seed Seed

To direct download this file, Visit.
www.DigiMaza.com

================================================================


More at ibit.to
And ibit.uno
And ibit.ws

Comments

10 months ago

is it me or does ep 2 not have audio?

7 months ago

Episode 2 has no audio.

Files

[DigiMaza] My Hero Academia S1 (Eng)/[DigiMaza] My Hero Academia Ep.11.mkv 231 MB
[DigiMaza] My Hero Academia S1 (Eng)/[DigiMaza] My Hero Academia Ep.10.mkv 230 MB
[DigiMaza] My Hero Academia S1 (Eng)/[DigiMaza] My Hero Academia Ep.12.mkv 212 MB
[DigiMaza] My Hero Academia S1 (Eng)/[DigiMaza] My Hero Academia Ep.04.mkv 203 MB
[DigiMaza] My Hero Academia S1 (Eng)/[DigiMaza] My Hero Academia Ep.13.mkv 198 MB
[DigiMaza] My Hero Academia S1 (Eng)/[DigiMaza] My Hero Academia Ep.07.mkv 196 MB
[DigiMaza] My Hero Academia S1 (Eng)/[DigiMaza] My Hero Academia Ep.01.mkv 194 MB
[DigiMaza] My Hero Academia S1 (Eng)/[DigiMaza] My Hero Academia Ep.06.mkv 188 MB
[DigiMaza] My Hero Academia S1 (Eng)/[DigiMaza] My Hero Academia Ep.08.mkv 183 MB
[DigiMaza] My Hero Academia S1 (Eng)/[DigiMaza] My Hero Academia Ep.03.mkv 182 MB
[DigiMaza] My Hero Academia S1 (Eng)/[DigiMaza] My Hero Academia Ep.09.mkv 176 MB
[DigiMaza] My Hero Academia S1 (Eng)/[DigiMaza] My Hero Academia Ep.05.mkv 162 MB
[DigiMaza] My Hero Academia S1 (Eng)/[DigiMaza] My Hero Academia Ep.02.mkv 145 MB
[DigiMaza] My Hero Academia S1 (Eng)/Read Me.txt 400 B

Stream

Downloading Seeding My Hero Academia Season 1 Complete (EngDub) 720p x265 Download from to 0 peers.
of
0 b/s / ↗0 b/s