• 28
  • 3
  • done
Sponsored Download

Description

image

image

image

image

** Media Information **

`General

Format                                   : Matroska

Format version                           : Version 4 / Version 2

File size                                : 1.40 GiB

Duration                                 : 1 h 38 min

Overall bit rate                         : 2 041 kb/s

Encoded date                             : UTC 2019-06-08 05:11:52

Writing application                      : mkvmerge v9.6.0 ('Slave To Your Mind') 64bit

Writing library                          : libebml v1.3.4 + libmatroska v1.4.5

Video

ID                                       : 1

Format                                   : HEVC

Format/Info                              : High Efficiency Video Coding

Format profile                           : Main [email protected]@Main

Codec ID                                 : V_MPEGH/ISO/HEVC

Duration                                 : 1 h 38 min

Bit rate                                 : 1 368 kb/s

Width                                    : 1 920 pixels

Height                                   : 1 080 pixels

Display aspect ratio                     : 16:9

Frame rate mode                          : Constant

Frame rate                               : 23.976 (24000/1001) FPS

Color space                              : YUV

Chroma subsampling                       : 4:2:0

Bit depth                                : 10 bits

Bits/(Pixel*Frame)                       : 0.028

Stream size                              : 963 MiB (67%)

Writing library                          : x265 3.0_Au+32-a46ded2c1411:[Windows][MSVC 1921][64 bit] 10bit

Encoding settings                        : cpuid=1111039 / frame-threads=3 / numa-pools=8 / wpp / no-pmode / no-pme / no-psnr / no-ssim / log-level=2 / input-csp=1 / input-res=1920x1080 / interlace=0 / total-frames=141577 / level-idc=0 / high-tier=1 / uhd-bd=0 / ref=3 / no-allow-non-conformance / no-repeat-headers / annexb / no-aud / no-hrd / info / hash=0 / no-temporal-layers / open-gop / min-keyint=23 / keyint=250 / gop-lookahead=0 / bframes=8 / b-adapt=2 / b-pyramid / bframe-bias=0 / rc-lookahead=50 / lookahead-slices=6 / scenecut=40 / radl=0 / no-splice / no-intra-refresh / ctu=64 / min-cu-size=8 / no-rect / no-amp / max-tu-size=32 / tu-inter-depth=1 / tu-intra-depth=1 / limit-tu=0 / rdoq-level=0 / dynamic-rd=0.00 / no-ssim-rd / signhide / no-tskip / nr-intra=0 / nr-inter=0 / no-constrained-intra / strong-intra-smoothing / max-merge=3 / limit-refs=1 / no-limit-modes / me=2 / subme=4 / merange=57 / temporal-mvp / weightp / no-weightb / no-analyze-src-pics / deblock=1:1 / sao / no-sao-non-deblock / rd=3 / early-skip / rskip / no-fast-intra / no-tskip-fast / no-cu-lossless / b-intra / no-splitrd-skip / rdpenalty=0 / psy-rd=0.40 / psy-rdoq=0.00 / no-rd-refine / no-lossless / cbqpoffs=0 / crqpoffs=0 / rc=crf / crf=23.0 / qcomp=0.60 / qpstep=4 / stats-write=0 / stats-read=0 / ipratio=1.40 / pbratio=1.30 / aq-mode=3 / aq-strength=0.40 / cutree / zone-count=0 / no-strict-cbr / qg-size=32 / no-rc-grain / qpmax=69 / qpmin=0 / no-const-vbv / sar=0 / overscan=0 / videoformat=5 / range=0 / colorprim=2 / transfer=2 / colormatrix=1 / chromaloc=0 / display-window=0cll=0,0 / min-luma=0 / max-luma=1023 / log2-max-poc-lsb=8 / vui-timing-info / vui-hrd-info / slices=1 / no-opt-qp-pps / no-opt-ref-list-length-pps / no-multi-pass-opt-rps / scenecut-bias=0.05 / no-opt-cu-delta-qp / no-aq-motion / no-hdr / no-hdr-opt / no-dhdr10-opt / no-idr-recovery-sei / analysis-reuse-level=5 / scale-factor=0 / refine-intra=0 / refine-inter=0 / refine-mv=0 / refine-ctu-distortion=0 / no-limit-sao / ctu-info=0 / no-lowpass-dct / refine-analysis-type=0 / copy-pic=1 / max-ausize-factor=1.0 / no-dynamic-refine / no-single-sei / no-hevc-aq / no-svt / no-field / qp-adaptation-range=1.00

Default                                  : Yes

Forced                                   : No

Color range                              : Limited

Matrix coefficients                      : BT.709

Audio #1

ID                                       : 2

Format                                   : AAC

Format/Info                              : Advanced Audio Codec

Format profile                           : LC

Codec ID                                 : A_AAC

Duration                                 : 1 h 38 min

Bit rate                                 : 310 kb/s

Channel(s)                               : 6 channels

Channel positions                        : Front: L C R, Side: L R, LFE

Sampling rate                            : 48.0 kHz

Frame rate                               : 46.875 FPS (1024 spf)

Compression mode                         : Lossy

Stream size                              : 219 MiB (15%)

Language                                 : Japanese

Default                                  : Yes

Forced                                   : No

Audio #2

ID                                       : 3

Format                                   : AAC

Format/Info                              : Advanced Audio Codec

Format profile                           : LC

Codec ID                                 : A_AAC

Duration                                 : 1 h 38 min

Bit rate                                 : 310 kb/s

Channel(s)                               : 6 channels

Channel positions                        : Front: L C R, Side: L R, LFE

Sampling rate                            : 48.0 kHz

Frame rate                               : 46.875 FPS (1024 spf)

Compression mode                         : Lossy

Stream size                              : 218 MiB (15%)

Language                                 : English

Default                                  : No

Forced                                   : No

Subtitle #1

ID                                       : 4

Format                                   : PGS

Muxing mode                              : zlib

Codec ID                                 : S_HDMV/PGS

Codec ID/Info                            : Picture based subtitle format used on BDs/HD-DVDs

Duration                                 : 1 h 35 min

Bit rate                                 : 10.9 kb/s

Count of elements                        : 2298

Stream size                              : 7.45 MiB (1%)

Title                                    : English Sub (Translated from Japanese)

Language                                 : English

Default                                  : Yes

Forced                                   : No

Subtitle #2

ID                                       : 5

Format                                   : PGS

Muxing mode                              : zlib

Codec ID                                 : S_HDMV/PGS

Codec ID/Info                            : Picture based subtitle format used on BDs/HD-DVDs

Duration                                 : 1 h 32 min

Bit rate                                 : 19.5 kb/s

Count of elements                        : 2183

Stream size                              : 12.9 MiB (1%)

Title                                    : English Audio's Closed Captions

Language                                 : English

Default                                  : No

Forced                                   : No

Subtitle #3

ID                                       : 6

Format                                   : PGS

Muxing mode                              : zlib

Codec ID                                 : S_HDMV/PGS

Codec ID/Info                            : Picture based subtitle format used on BDs/HD-DVDs

Duration                                 : 1 h 32 min

Bit rate                                 : 21.0 kb/s

Count of elements                        : 2225

Stream size                              : 13.9 MiB (1%)

Language                                 : Spanish

Default                                  : No

Forced                                   : No

Menu

00:00:00.000                             : en:Chapter 01

00:02:39.493                             : en:Chapter 02

00:09:02.167                             : en:Chapter 03

00:13:13.960                             : en:Chapter 04

00:20:35.735                             : en:Chapter 05

00:25:47.046                             : en:Chapter 06

00:32:04.840                             : en:Chapter 07

00:41:28.528                             : en:Chapter 08

00:46:47.013                             : en:Chapter 09

00:54:56.126                             : en:Chapter 10

00:59:12.090                             : en:Chapter 11

01:05:50.238                             : en:Chapter 12

01:09:55.400                             : en:Chapter 13

01:16:36.967                             : en:Chapter 14

01:22:53.427                             : en:Chapter 15

01:30:06.902                             : en:Chapter 16

01:33:15.215                             : en:Chapter 17

`


More at ibit.to
And ibit.uno
And ibit.ws

Comments

2 months ago

Thanks! The lower filesize is much appreciated.

2 months ago

Glad you like it :)

Files

Mirai.no.Mirai.2018.1080p.BluRay.Dual.Audio.x265.HEVC.10bit.AAC.6CH-theincognito.mkv 1.4 GB

Stream

Downloading Seeding Mirai.no.Mirai.2018.1080p.BluRay.Dual.Audio.x265.HEVC.10bit.AAC.6CH-theincognito.mkv from to 0 peers.
of
0 b/s / ↗0 b/s