• 2,694
  • 3,351
  • done
Anonymous Downloadondemand_video
Warning! Use a VPN When Downloading Torrents!
Your IP Address is ,
Your Internet Provider can see when you download torrents! Hide your IP ADDRESS with a VPN
We strongly recommend Trust.Zone VPN to hide your torrenting. It's FREE!
DOWNLOAD VPN
59%

Men in Black: International (2019)

  • Action Comedy Science Fiction Adventure
  • The Men in Black have always protected the Earth from the scum of the universe. In this new adventure, they tackle their biggest, most global threat to date: a mole in the Men in Black organization.

    expand_more
    English
  • $110,000,000
  • Description

    image

    Plot: The Men in Black have always protected the Earth from the scum of the universe. In this new adventure, they tackle their biggest threat to date: a mole in the Men in Black organization.

    Genre: Action | Adventure | Comedy | Sci-Fi

    IMDB Rating: 5.6/10.0 From 14,924 Users

    Directed by: F. Gary Gray

    Starring: Chris Hemsworth, Tessa Thompson, Kumail Nanjiani

    General

    Format                                   : MPEG-4

    Format profile                           : Base Media

    Codec ID                                 : isom (isom/iso2/avc1/mp41)

    File size                                : 3.57 GiB

    Duration                                 : 1h 54mn

    Overall bit rate                         : 4 445 Kbps

    Writing application                      : ShanaEncoder

    Video

    ID                                       : 1

    Format                                   : AVC

    Format/Info                              : Advanced Video Codec

    Format profile                           : [email protected]

    Format settings, CABAC                   : No

    Format settings, ReFrames                : 1 frame

    Codec ID                                 : avc1

    Codec ID/Info                            : Advanced Video Coding

    Duration                                 : 1h 54mn

    Bit rate                                 : 4 249 Kbps

    Width                                    : 1 920 pixels

    Height                                   : 1 080 pixels

    Display aspect ratio                     : 16:9

    Frame rate mode                          : Constant

    Frame rate                               : 23.976 (24000/1001) fps

    Color space                              : YUV

    Chroma subsampling                       : 4:2:0

    Bit depth                                : 8 bits

    Scan type                                : Progressive

    Bits/(Pixel*Frame)                       : 0.085

    Stream size                              : 3.41 GiB (96%)

    Writing library                          : x264 core 155 r2901 7d0ff22

    Encoding settings                        : cabac=0 / ref=1 / deblock=1:0:0 / analyse=0x1:0x111 / me=hex / subme=2 / psy=1 / psyrd=1.00:0.00 / mixedref=0 / merange=16 / chromame=1 / trellis=0 / 8x8dct=0 / cqm=0 / deadzone=21,11 / fastpskip=1 / chromaqpoffset=0 / threads=6 / lookaheadthreads=2 / slicedthreads=0 / nr=0 / decimate=1 / interlaced=0 / bluraycompat=0 / constrainedintra=0 / bframes=0 / weightp=0 / keyint=250 / keyintmin=23 / scenecut=40 / intrarefresh=0 / rclookahead=10 / rc=crf / mbtree=1 / crf=20.0 / qcomp=0.60 / qpmin=0 / qpmax=69 / qpstep=4 / ip_ratio=1.40 / aq=1:1.00

    Audio

    ID                                       : 2

    Format                                   : AAC

    Format/Info                              : Advanced Audio Codec

    Format profile                           : LC

    Codec ID                                 : 40

    Duration                                 : 1h 54mn

    Bit rate mode                            : Constant

    Bit rate                                 : 192 Kbps

    Channel(s)                               : 2 channels

    Channel positions                        : Front: L R

    Sampling rate                            : 48.0 KHz

    Frame rate                               : 46.875 fps (1024 spf)

    Compression mode                         : Lossy

    Stream size                              : 158 MiB (4%)

    Default                                  : Yes

    Alternate group                          : 1

    image

    image

    image

    image

    image


    More at ibit.to
    And ibit.uno
    And ibit.ws

    Reviews

    'MIB: International' sounds like a good idea on paper, from the cast and the director - even for the franchise, the idea to go “International” sounds really exciting and a great way to expand the world without being too tied to the original films. Unfortunately, it’s just another boring blockbuster using a nostalgic property to make a quick buck without understanding what made the lighting in a bottle that was the first film work. We didn’t even get a rap tie-in song from Will Smith or even Pitbull, and that’s what truly hurts the most. - Chris dos Santos Read Chris' full article... https://www.maketheswitch.com.au/article/review-men-in-black-international-wish-we-could-memory-wipe-this-one

    Chris Hemsworth just makes everything better. The only good parts of Ghostbusters was Hemsworth. His Thor movies were the best of the MC individual movies and his presence made the Avengers movies that much more enjoyable. Similarly, his levity here made a decline from MiB3 more tolerable. He's just fun to watch.

    They've changed the setting, the leads, the journey cycle, the effects, (most of) the supporting cast, the tone, and the timeframe, yet somewhere we still have the exact same plot. Four for four on _Men in Black_ with the EXACT. SAME. PLOT. I was entertained though, so, there's only so much I can complain really. _Final rating:★★½ - Had a lot that appealed to me, didn’t quite work as a whole._

    Comments

    Files

    Men.in.Black - International.2019.KOR.HDRip.1080p.H264.AAC-WHD.mp4 3.6 GB

    Stream

    Downloading Seeding Men.in.Black - International.2019.KOR.HDRip.1080p.H264.AAC-WHD.mp4 from to 0 peers.
    of
    0 b/s / ↗0 b/s