• -
  • -
  • done
Download

Description

Волшебные мгновения. Магия природы / Magic Moments – The Spell of Nature

image


Год выпуска : 2020

Страна : Австрия

Студия : Terra Mater Factual Studios

Жанр : Документальный, природа, флора, фауна

Продолжительность : 00:50:12

Перевод : Студийный (одноголосый закадровый)

Доп. инфо о переводе : 1 ТВЧ

Режиссер : Christopher Kohler, Ivo Filatsch / Кристофер Колер и Иво Филач


Описание : Будь то ночь или день, северное или южное полушарие, независимо от сезона или местоположения, мир природы дарит волшебные моменты круглый год. Неудивительно, что люди по-прежнему так очарованы чудесами, которые нас окружают. Мы являемся неотъемлемой частью природы, и наша жизнь неотделима от этих зрелищ, захватывающих событий и незабываемых волшебных моментов.


Сэмпл


Тип релиза : HDTVRip

Контейнер : AVI

Видео : 704x400 (16:9), 25 fps, Dvix5, 1754 kbps avg

Аудио : Русский 48 kHz, AC3 Dolby Digital, 2/0 (L,R) ch, ~192.00 kbps avg


MediaInfo

`
General
Complete name : D:ФильмыВолшебные мгновения.HDTVRip.2020.[Aids].avi
Format : AVI
Format/Info : Audio Video Interleave
File size : 702 MiB
Duration : 50 min 12 s
Overall bit rate : 1 955 kb/s
Writing application : VirtualDubMod 1.5.10.3 | www.virtualdub-fr.org || (build 2550/release)
Writing library : VirtualDubMod build 2550/release

Video
ID : 0
Format : MPEG-4 Visual
Format profile : Advanced [email protected]
Format settings : BVOP1
Format settings, BVOP : 1
Format settings, QPel : No
Format settings, GMC : No warppoints
Format settings, Matrix : Default (H.263)
Codec ID : DX50
Codec ID/Hint : DivX 5
Duration : 50 min 12 s
Bit rate : 1 754 kb/s
Width : 704 pixels
Height : 400 pixels
Display aspect ratio : 16:9
Frame rate : 25.000 FPS
Color space : YUV
Chroma subsampling : 4:2:0
Bit depth : 8 bits
Scan type : Progressive
Compression mode : Lossy
Bits/(Pixel*Frame) : 0.249
Stream size : 630 MiB (90%)
Writing library : XviD 1.2.1 (UTC 2008-12-04)

Audio
ID : 1
Format : AC-3
Format/Info : Audio Coding 3
Commercial name : Dolby Digital
Codec ID : 2000
Duration : 50 min 12 s
Bit rate mode : Constant
Bit rate : 192 kb/s
Channel(s) : 2 channels
Channel layout : L R
Sampling rate : 48.0 kHz
Frame rate : 31.250 FPS (1536 SPF)
Compression mode : Lossy
Stream size : 68.9 MiB (10%)
Alignment : Split across interleaves
Interleave, duration : 40 ms (1.00 video frame)
Interleave, preload duration : 500 ms
Service kind : Complete Main
`

Скриншоты

image image image image image

image


More at ibit.to
And ibit.uno
And ibit.am
And ibit.ws

Comments

Files

Stream

Downloading Seeding Magic Moments – The Spell of Nature (Christopher Kohler, Ivo Filatsch from to 0 peers.
of
0 b/s / ↗0 b/s