• 78
  • 4
  • done
Anonymous Downloadondemand_video
  • Ma.2019.WEB-DL.1080p.seleZen.mkv
  • 3.7 GB
  • freeexchange
  • 2019 WEB 1080p seleZen mkv
  • English
  • HD 1080p
Warning! Use a VPN When Downloading Torrents!
Your IP Address is ,
Your Internet Provider can see when you download torrents! Hide your IP ADDRESS with a VPN
We strongly recommend hide.me VPN to hide your torrenting. It's FREE!
DOWNLOAD VPN
56%

Ma (2019)

  • Thriller Horror Comedy
  • Sue Ann is a loner who keeps to herself in her quiet Ohio town. One day, she is asked by Maggie, a new teenager in town, to buy some booze for her and her friends, and Sue Ann sees the chance to make some unsuspecting, if younger, friends of her own.

    expand_more
    English
  • $5,000,000
  • Description

    image

    Информация о фильме

    Название:

    Ма

    Оригинальное название: Ma

    Год выхода: 2019

    Жанр: Ужасы, триллер

    Режиссер: Тейт Тейлор

    В ролях: Октавия Спенсер, Диана Сильверс, Джульетт Льюис, МакКэйли Миллер, Кори Фогельманис, Джанни Паоло, Данте Браун, Таниэлл Уиверс, Доминик Бёрджесс, Хизер Мари Пэйт

    image image

    **

    О фильме:

    **

    Все знают, что у МА самые крутые вечеринки в городе. Здесь всегда громкая музыка, и алкоголь льется рекой. В этом доме нет никаких ограничений, кроме одного: никогда не заходи в ее комнату. Добро пожаловать к МА.

    Страна: США

    Студия: Blumhouse Productions, Hurwitz Creative, Wyolah Films

    Продолжительность: 01:39:22

    Перевод: Дублированный | iTunes

    Качество: WEB-DL 1080p

    Видео: MPEG-4 AVC, 1920x800, 4583 Kbit/s, 23.976 fps

    Звук:

    Аудио #01: 48 kHz, AC3, 5.1, 384 Kbps | iTunes | RUS |image

    Аудио #02: 48 kHz, AC3, 2.0, 384 Kbps | Оригинал | ENG |image

    Субтитры: Русские (Forced, full), английские

    image image image image image

    General

    Unique ID : 163860156405670240201657382214863663007 (0x7B465174FD453B19B9AE2800C01FAF9F)

    Complete name : D:Video111Ma.2019.WEB-DL.1080p.seleZen.mkv

    Format : Matroska

    Format version : Version 4

    File size : 3.72 GiB

    Duration : 1 h 39 min

    Overall bit rate : 5 353 kb/s

    Movie name : Ma 2019 from селезень

    Encoded date : UTC 2019-08-15 06:44:27

    Writing application : mkvmerge v22.0.0 ('At The End Of The World') 64-bit

    Writing library : libebml v1.3.5 + libmatroska v1.4.8

    Video

    ID : 1

    Format : AVC

    Format/Info : Advanced Video Codec

    Format profile : [email protected]

    Format settings : CABAC / 5 Ref Frames

    Format settings, CABAC : Yes

    Format settings, Reference : 5 frames

    Codec ID : V_MPEG4/ISO/AVC

    Duration : 1 h 39 min

    Bit rate : 4 583 kb/s

    Width : 1 916 pixels

    Height : 800 pixels

    Display aspect ratio : 2.40:1

    Frame rate mode : Constant

    Frame rate : 23.976 FPS

    Color space : YUV

    Chroma subsampling : 4:2:0

    Bit depth : 8 bits

    Scan type : Progressive

    Bits/(Pixel*Frame) : 0.125

    Stream size : 3.18 GiB (86%)

    Language : English

    Default : Yes

    Forced : No

    Color range : Limited

    Color primaries : BT.709

    Transfer characteristics : BT.709

    Matrix coefficients : BT.709

    Audio #1

    ID : 2

    Format : AC-3

    Format/Info : Audio Coding 3

    Commercial name : Dolby Digital

    Codec ID : A_AC3

    Duration : 1 h 39 min

    Bit rate mode : Constant

    Bit rate : 384 kb/s

    Channel(s) : 6 channels

    Channel layout : L R C LFE Ls Rs

    Sampling rate : 48.0 kHz

    Frame rate : 31.250 FPS (1536 SPF)

    Bit depth : 16 bits

    Compression mode : Lossy

    Stream size : 273 MiB (7%)

    Title : iTunes

    Language : Russian

    Service kind : Complete Main

    Default : Yes

    Forced : Yes

    Audio #2

    ID : 3

    Format : AC-3

    Format/Info : Audio Coding 3

    Commercial name : Dolby Digital

    Codec ID : A_AC3

    Duration : 1 h 39 min

    Bit rate mode : Constant

    Bit rate : 384 kb/s

    Channel(s) : 2 channels

    Channel layout : L R

    Sampling rate : 48.0 kHz

    Frame rate : 31.250 FPS (1536 SPF)

    Bit depth : 16 bits

    Compression mode : Lossy

    Stream size : 273 MiB (7%)

    Title : Original

    Language : English

    Service kind : Complete Main

    Default : No

    Forced : No

    Text #1

    ID : 4

    Format : UTF-8

    Codec ID : S_TEXT/UTF8

    Codec ID/Info : UTF-8 Plain Text

    Duration : 1 h 25 min

    Bit rate : 0 b/s

    Count of elements : 5

    Stream size : 170 Bytes (0%)

    Title : Forced

    Language : Russian

    Default : Yes

    Forced : Yes

    Text #2

    ID : 5

    Format : UTF-8

    Codec ID : S_TEXT/UTF8

    Codec ID/Info : UTF-8 Plain Text

    Duration : 1 h 29 min

    Bit rate : 94 b/s

    Count of elements : 1463

    Stream size : 61.9 KiB (0%)

    Title : Full

    Language : Russian

    Default : No

    Forced : No

    Text #3

    ID : 6

    Format : UTF-8

    Codec ID : S_TEXT/UTF8

    Codec ID/Info : UTF-8 Plain Text

    Duration : 1 h 38 min

    Bit rate : 67 b/s

    Count of elements : 1735

    Stream size : 49.1 KiB (0%)

    Title : Full

    Language : English

    Default : No

    Forced : No

    Menu

    00:00:00.000 : en:1

    00:05:08.808 : en:2

    00:10:43.349 : en:3

    00:15:53.742 : en:4

    00:19:28.164 : en:5

    00:25:45.207 : en:6

    00:30:03.797 : en:7

    00:35:03.387 : en:8

    00:40:20.787 : en:9

    00:45:14.830 : en:10

    00:50:09.958 : en:11

    00:54:35.682 : en:12

    00:57:50.625 : en:13

    01:02:12.010 : en:14

    01:06:10.247 : en:15

    01:11:46.290 : en:16

    01:16:24.525 : en:17

    01:20:31.854 : en:18

    01:25:24.312 : en:19

    01:32:42.375 : en:20


    More at ibit.to
    And ibit.uno
    And ibit.am
    And ibit.ws

    Reviews

    So-so thriller, that could've been straight out of the 90s, features some decent performances, particularly Octavia Spencer and Diana Silvers. Nothing special and outside of the language and sexual content, kind of feels like something that would be on the Lifetime Movies network or something. Probably worth a rental, not much more. **2.5/5**

    I was sort of annoyed by _Ma's_ promotional campaign. When that very first trailer dropped, I was hooked instantly. It very much played up the mystery. You knew there was something not quite right, but no idea what. I couldn't even be certain the angle they were gonna play up was Octavia Spencer as a villain. Then every bit of marketing material afterwards showed the hand almost immediately. Ma's a headcase no doubt about it and that great act 2 twist we had waiting in the wings was ruined. Then I actually watched the thing, and, no, it's totally fair, because the escalation on her craziness is pretty much complete by the end of day 1. Things from the first trailer that I thought could maybe sow of doubt towards making the audience dubious about her intentions, in the actual movie take place **after** she's already commited murder in broad daylight. So my expectations were off, that's on me. All that aside though, _Ma_ really isn't that great. It is okay, not terrible by any stretch, but probably doesn't merit a revisit. Octavia Spencer's character does provoke both genuine sympathy, and an overwhelming creep-factor, and hitting those two opposing aspects is quite impressive, but there is so much that _Ma_ completely drops, it almost feels unfinished. _Final rating:★★½ - Had a lot that appealed to me, didn’t quite work as a whole._

    Comments

    Files

    Ma.2019.WEB-DL.1080p.seleZen.mkv 3.7 GB

    Stream

    Downloading Seeding Ma.2019.WEB-DL.1080p.seleZen.mkv from to 0 peers.
    of
    0 b/s / ↗0 b/s