• -
  • -
  • done
Download
  • Legend (Брайан Хелгеленд
  • 13 GB
  • mechanical engineer
  • Legend
  • Главная

Description

Легенда / Legend

Open Matte

image


Страна : Великобритания, Франция

Студия : Anton Capital Entertainment (ACE), Cross Creek Pictures, Studio Canal, Working Title Films

Жанр : криминал, триллер, драма

Год выпуска : 2015

Продолжительность : 02:11:43


Перевод 1 : Профессиональный (дублированный) Дубляж Blu-ray RUS

Перевод 2 : Авторский (одноголосый закадровый) / Ю.Сербин

Перевод 3 : Любительский (одноголосый закадровый) / М.Яроцкий

Перевод 4 : Профессиональный (многоголосый, закадровый) / Украинский - Гуртом

Cубтитры : английские

Оригинальная аудиодорожка : Английский


Режиссер : Брайан Хелгеленд / Brian Helgeland


В ролях : Том Харди, Эмили Браунинг, Дэвид Тьюлис, Даффи, Кристофер Экклстон, Чазз Пальминтери, Колин Морган, Джошуа Хилл, Пол Андерсон, Тара Фитцджеральд, Николас Фэррел, Адам Фогерти, Мел Райдо, Мейджор Джон Финли, Милли Брэйди, Крис Мэйсон, Стивен Томпсон, Сэм Спруэлл, Тэрон Эджертон, Алекс Фернс


Описание : Фильм расскажет историю близнецов Реджи и Ронни Крэй, культовых фигур преступного мира Великобритании 1960-х. Братья возглавляли самую влиятельную бандитскую группировку Ист-Энда. В их послужном списке: вооруженные грабежи, рэкет, поджоги, покушения, убийства и собственный ночной клуб, куда доезжали даже голливудские знаменитости. Среди их жертв — криминальные авторитеты Джек МакВитти и Джордж Корнелл.


Доп. информация :

IMDb | КиноПоиск | Сэмпл


Качество видео : WEB-DL 1080p

Формат видео : MKV

Видео : AVC, 1920x1080 (16:9), 24.000 fps, 10 000 kb/s; 0.187 bit/pixel

Аудио 1 : DTS, 5.1, 48 kHz, 1 510 kbps, 24-bit | Дубляж Blu-ray RUS

Аудио 2 : DTS, 5.1, 48 kHz, 768 kbps, 24-bit | Ю.Сербин

Аудио 3 : 48 kHz; 5.1 ch; 448.00 kbps; AC3 Dolby Digital | М.Яроцкий

Аудио 4 : 48 kHz; 5.1 ch; 448.00 kbps; AC3 Dolby Digital | Украинский - MVO - Гуртом

Аудио 5 : DTS, 5.1, 48 kHz, 1 510 kbps, 24-bit | Английкий

Аудио 6 : 48 kHz; 2 ch; 192.00 kbps; AC3 Dolby Digital | Английкий, Commentary with Brian Helgeland

Формат субтитров : softsub (SRT) : Английские

MediaInfo

Код:

Format                                   : Matroska
Format version                           : Version 4
File size                                : 13.0 GiB
Duration                                 : 2 h 11 min
Overall bit rate                         : 14.2 Mb/s
Encoded date                             : UTC 2021-02-05 20:04:09
Writing application                      : mkvmerge v53.0.0 ('Fool's Gold') 64-bit
Writing library                          : libebml v1.4.1 + libmatroska v1.6.2

Video
ID                                       : 1
Format                                   : AVC
Format/Info                              : Advanced Video Codec
Format profile                           : [email protected]
Format settings                          : CABAC / 4 Ref Frames
Format settings, CABAC                   : Yes
Format settings, Reference frames        : 4 frames
Codec ID                                 : V_MPEG4/ISO/AVC
Duration                                 : 2 h 11 min
Bit rate mode                            : Constant
Bit rate                                 : 9 300 kb/s
Nominal bit rate                         : 10 000 kb/s
Width                                    : 1 920 pixels
Height                                   : 1 080 pixels
Display aspect ratio                     : 16:9
Frame rate mode                          : Constant
Frame rate                               : 24.000 FPS
Color space                              : YUV
Chroma subsampling                       : 4:2:0
Bit depth                                : 8 bits
Scan type                                : Progressive
Bits/(Pixel*Frame)                       : 0.187
Stream size                              : 8.56 GiB (66%)
Default                                  : Yes
Forced                                   : No
Color range                              : Limited
Color primaries                          : BT.709
Transfer characteristics                 : BT.709
Matrix coefficients                      : BT.709

Audio #1
ID                                       : 2
Format                                   : DTS
Format/Info                              : Digital Theater Systems
Codec ID                                 : A_DTS
Duration                                 : 2 h 11 min
Bit rate mode                            : Constant
Bit rate                                 : 1 509 kb/s
Channel(s)                               : 6 channels
Channel layout                           : C L R Ls Rs LFE
Sampling rate                            : 48.0 kHz
Frame rate                               : 93.750 FPS (512 SPF)
Bit depth                                : 24 bits
Compression mode                         : Lossy
Stream size                              : 1.39 GiB (11%)
Title                                    : Дубляж Blu-ray RUS
Language                                 : Russian
Default                                  : Yes
Forced                                   : No

Audio #2
ID                                       : 3
Format                                   : DTS
Format/Info                              : Digital Theater Systems
Codec ID                                 : A_DTS
Duration                                 : 2 h 11 min
Bit rate mode                            : Constant
Bit rate                                 : 768 kb/s
Channel(s)                               : 6 channels
Channel layout                           : C L R Ls Rs LFE
Sampling rate                            : 48.0 kHz
Frame rate                               : 93.750 FPS (512 SPF)
Bit depth                                : 24 bits
Compression mode                         : Lossy
Stream size                              : 722 MiB (5%)
Title                                    : Ю.Сербин
Language                                 : Russian
Default                                  : No
Forced                                   : No

Audio #3
ID                                       : 4
Format                                   : AC-3
Format/Info                              : Audio Coding 3
Commercial name                          : Dolby Digital
Codec ID                                 : A_AC3
Duration                                 : 2 h 11 min
Bit rate mode                            : Constant
Bit rate                                 : 448 kb/s
Channel(s)                               : 6 channels
Channel layout                           : L R C LFE Ls Rs
Sampling rate                            : 48.0 kHz
Frame rate                               : 31.250 FPS (1536 SPF)
Compression mode                         : Lossy
Stream size                              : 421 MiB (3%)
Title                                    : Яроцкий
Language                                 : Russian
Service kind                             : Complete Main
Default                                  : No
Forced                                   : No

Audio #4
ID                                       : 5
Format                                   : AC-3
Format/Info                              : Audio Coding 3
Commercial name                          : Dolby Digital
Codec ID                                 : A_AC3
Duration                                 : 2 h 11 min
Bit rate mode                            : Constant
Bit rate                                 : 448 kb/s
Channel(s)                               : 6 channels
Channel layout                           : L R C LFE Ls Rs
Sampling rate                            : 48.0 kHz
Frame rate                               : 31.250 FPS (1536 SPF)
Compression mode                         : Lossy
Stream size                              : 420 MiB (3%)
Title                                    : MVO - Гуртом
Language                                 : Ukrainian
Service kind                             : Complete Main
Default                                  : No
Forced                                   : No

Audio #5
ID                                       : 6
Format                                   : DTS
Format/Info                              : Digital Theater Systems
Codec ID                                 : A_DTS
Duration                                 : 2 h 11 min
Bit rate mode                            : Constant
Bit rate                                 : 1 509 kb/s
Channel(s)                               : 6 channels
Channel layout                           : C L R Ls Rs LFE
Sampling rate                            : 48.0 kHz
Frame rate                               : 93.750 FPS (512 SPF)
Bit depth                                : 24 bits
Compression mode                         : Lossy
Stream size                              : 1.39 GiB (11%)
Title                                    : English
Language                                 : English
Default                                  : No
Forced                                   : No

Audio #6
ID                                       : 7
Format                                   : AC-3
Format/Info                              : Audio Coding 3
Commercial name                          : Dolby Digital
Codec ID                                 : A_AC3
Duration                                 : 2 h 11 min
Bit rate mode                            : Constant
Bit rate                                 : 192 kb/s
Channel(s)                               : 2 channels
Channel layout                           : L R
Sampling rate                            : 48.0 kHz
Frame rate                               : 31.250 FPS (1536 SPF)
Compression mode                         : Lossy
Stream size                              : 180 MiB (1%)
Title                                    : Commentary with Brian Helgeland
Language                                 : English
Service kind                             : Complete Main
Default                                  : No
Forced                                   : No

Text #1
ID                                       : 8
Format                                   : UTF-8
Codec ID                                 : S_TEXT/UTF8
Codec ID/Info                            : UTF-8 Plain Text
Duration                                 : 2 h 7 min
Bit rate                                 : 80 b/s
Count of elements                        : 2111
Stream size                              : 74.6 KiB (0%)
Title                                    : English
Language                                 : English
Default                                  : No
Forced                                   : No

Text #2
ID                                       : 9
Format                                   : UTF-8
Codec ID                                 : S_TEXT/UTF8
Codec ID/Info                            : UTF-8 Plain Text
Duration                                 : 2 h 7 min
Bit rate                                 : 76 b/s
Count of elements                        : 1998
Stream size                              : 71.0 KiB (0%)
Title                                    : English-SDH
Language                                 : English
Default                                  : No
Forced                                   : No

Menu
00:00:00.000                             : :Chapter 1
00:10:53.330                             : :Chapter 2
00:21:36.957                             : :Chapter 3
00:31:27.430                             : :Chapter 4
00:43:59.300                             : :Chapter 5
00:51:20.360                             : :Chapter 6
01:03:15.110                             : :Chapter 7
01:13:04.530                             : :Chapter 8
01:23:33.200                             : :Chapter 9
01:33:42.260                             : :Chapter 10
01:44:00.300                             : :Chapter 11
01:54:54.450                             : :Chapter 12

Скриншоты (превью - увеличение по клику):

image

image image image image image image image image image image image

Сравнения Blu-ray с WEB-DL

http://www.framecompare.com/image-compare/screenshotcomparison/Z6PPNNNX

image image

image image

image image

image image

image image

image image

image image

image image

ПРИЯТНОГО ПРОСМОТРА!


More at ibit.to
And ibit.uno
And ibit.am
And ibit.ws

Comments

Files

Stream

Downloading Seeding Legend (Брайан Хелгеленд from to 0 peers.
of
0 b/s / ↗0 b/s