• -
  • -
  • done
Sponsored Downloadondemand_video
  • L.Intervention.BDRemux.1080p.pk.mkv
  • 25 GB
  • pk5360114
  • Intervention BDRemux 1080p mkv
  • HD Video
71%

15 Minutes of War (2019)

  • Action Drama War
  • February 1976. Somalian rebels hijack a school bus carrying 21 French children and their teacher in Djibouti City. When the terrorists drive it to a no-man’s-land on the border between Somalia and French territory, the French Government sends out a newly formed elite squad to rescue the hostages. Within a few hours, the highly trained team arrives to the crisis area, where the Somalian National Army has taken position behind the barbed wire on the border. The French unit is left with very few options to rescue the hostages. As the volatile situation unravels, the French men quickly come up with a daring plan: carry out a simultaneous 5 men sniper attack to get the children and the teacher out safely. A true story.

    Description

    Пятнадцать минут войны / L'Intervention

    -

    image

    Страна : Франция, Бельгия

    Жанр : Боевик, драма, военный, история

    Год выпуска : 2019

    Продолжительность : 1:38:24


    Перевод : Профессиональный (многоголосый закадровый) |

    (iTunes)

    Cубтитры : Французские (forced, full)

    Оригинальная аудиодорожка : Французский


    Режиссёр : Фред Гривуа / Fred Grivois

    В ролях : Альбан Ленуар, Ольга Куриленко, Себастьян Лаланн, Давид Муржиа, Микаэль Абитбуль, Гийом Лаббе, Бен Кура, Венсан Перес, Жозиан Баласко, Кевин Лэйн

    Описание : 1976 год. Сомалийские мятежники угоняют школьный автобус, пассажиры которого — 21 французский ученик и американский учитель, и увозят его к нейтральной зоне на границе между французской колонией и Сомали. Французский капитан Андре Жерваль получает задание возглавить команду снайперов для оперативного спасения заложников. Когда переговоры терпят неудачу, Жерваль и его ребята становятся единственными, кто может спасти их жизнь.


    image image image


    Тип релиза : BDRemux 1080p

    Контейнер : MKV


    Видео : AVC/H.264, 1920x1080, 29991 kbps, 24.000 fps

    Аудио 1 : Русский | AC-3, 6 ch, 384 Kbps, 48.0 KHz

    Аудио 2 : Французский | DTS-HD MA, 6 ch, 3456 Kbps, 48.0 KHz, 24-bit (DTS Core: 5.1 / 48 kHz / 1509 kbps / 24-bit)


    MediaInfo

    Код:

    General
    Unique ID                                : 275428465572753304336368782183840617753 (0xCF3597CACE42929D7497DCA87D901519)
    Complete name                            : /Volumes/Promise/L.Intervention.BDRemux.1080p.pk.mkv
    Format                                   : Matroska
    Format version                           : Version 4
    File size                                : 23.1 GiB
    Duration                                 : 1h 38mn
    Overall bit rate mode                    : Variable
    Overall bit rate                         : 33.7 Mbps
    Movie name                               : L'Intervention BDRemux pk
    Encoded date                             : UTC 2019-07-11 23:29:05
    Writing application                      : mkvmerge v35.0.0 ('All The Love In The World') 64-bit
    Writing library                          : libebml v1.3.9 + libmatroska v1.5.2

    Video
    ID                                       : 1
    Format                                   : AVC
    Format/Info                              : Advanced Video Codec
    Format profile                           : High@L4.1
    Format settings                          : CABAC / 4 Ref Frames
    Format settings, CABAC                   : Yes
    Format settings, ReFrames                : 4 frames
    Format settings, GOP                     : M=3, N=12
    Codec ID                                 : V_MPEG4/ISO/AVC
    Duration                                 : 1h 38mn
    Bit rate mode                            : Variable
    Bit rate                                 : 29.8 Mbps
    Maximum bit rate                         : 37.0 Mbps
    Width                                    : 1 920 pixels
    Height                                   : 1 080 pixels
    Display aspect ratio                     : 16:9
    Frame rate mode                          : Constant
    Frame rate                               : 24.000 fps
    Color space                              : YUV
    Chroma subsampling                       : 4:2:0
    Bit depth                                : 8 bits
    Scan type                                : Progressive
    Bits/(Pixel*Frame)                       : 0.599
    Stream size                              : 20.5 GiB (89%)
    Language                                 : French
    Default                                  : Yes
    Forced                                   : No

    Audio #1
    ID                                       : 2
    Format                                   : AC-3
    Format/Info                              : Audio Coding 3
    Commercial name                          : Dolby Digital
    Codec ID                                 : A_AC3
    Duration                                 : 1h 38mn
    Bit rate mode                            : Constant
    Bit rate                                 : 384 Kbps
    Channel(s)                               : 6 channels
    Channel layout                           : L R C LFE Ls Rs
    Sampling rate                            : 48.0 KHz
    Frame rate                               : 31.250 fps (1536 SPF)
    Bit depth                                : 16 bits
    Compression mode                         : Lossy
    Stream size                              : 270 MiB (1%)
    Title                                    : Russian MVO (iTunes)
    Language                                 : Russian
    Service kind                             : Complete Main
    Default                                  : Yes
    Forced                                   : No

    Audio #2
    ID                                       : 3
    Format                                   : DTS XLL
    Format/Info                              : Digital Theater Systems
    Commercial name                          : DTS-HD Master Audio
    Codec ID                                 : A_DTS
    Duration                                 : 1h 38mn
    Bit rate mode                            : Variable
    Bit rate                                 : 3 456 Kbps
    Channel(s)                               : 6 channels
    Channel layout                           : C L R Ls Rs LFE
    Sampling rate                            : 48.0 KHz
    Frame rate                               : 93.750 fps (512 SPF)
    Bit depth                                : 24 bits
    Compression mode                         : Lossless
    Stream size                              : 2.38 GiB (10%)
    Title                                    : French Original
    Language                                 : French
    Default                                  : No
    Forced                                   : No

    Text #1
    ID                                       : 4
    Format                                   : UTF-8
    Codec ID                                 : S_TEXT/UTF8
    Codec ID/Info                            : UTF-8 Plain Text
    Duration                                 : 1h 14mn
    Bit rate                                 : 7 bps
    Count of elements                        : 136
    Stream size                              : 4.28 KiB (0%)
    Title                                    : French forced
    Language                                 : French
    Default                                  : No
    Forced                                   : No

    Text #2
    ID                                       : 5
    Format                                   : UTF-8
    Codec ID                                 : S_TEXT/UTF8
    Codec ID/Info                            : UTF-8 Plain Text
    Duration                                 : 1h 38mn
    Bit rate                                 : 38 bps
    Count of elements                        : 1092
    Stream size                              : 28.1 KiB (0%)
    Title                                    : French full
    Language                                 : French
    Default                                  : No
    Forced                                   : No

    Menu
    00:00:00.000                             : fr:(01)00:00:00:000
    00:09:35.958                             : fr:(02)00:09:35:958
    00:15:56.875                             : fr:(03)00:15:56:875
    00:23:28.833                             : fr:(04)00:23:28:833
    00:33:02.916                             : fr:(05)00:33:02:916
    00:39:47.833                             : fr:(06)00:39:47:833
    00:48:04.000                             : fr:(07)00:48:04:000
    00:55:23.958                             : fr:(08)00:55:23:958
    01:04:22.416                             : fr:(09)01:04:22:416
    01:12:05.916                             : fr:(10)01:12:05:916
    01:19:38.791                             : fr:(11)01:19:38:791
    01:28:59.250                             : fr:(12)01:28:59:250

    Скриншоты

    image image image image image image


    More at ibit.to
    And ibit.uno
    And ibit.ws

    Reviews

    Comments

    Files

    L.Intervention.BDRemux.1080p.pk.mkv 25 GB

    Stream

    Downloading Seeding L.Intervention.BDRemux.1080p.pk.mkv from to 0 peers.
    of
    0 b/s / ↗0 b/s