• -
  • -
  • done
  • Kono Subarashii Sekai ni Shukufuku wo!: Kurenai Densetsu
  • 1.4 GB
  • zormeg
  • Kono Subarashii Sekai Shukufuku Kurenai Densetsu
  • Аниме (основной подраздел)

Description

Этот замечательный мир! Багровая легенда / Kono Subarashii Sekai ni Shukufuku wo!: Kurenai Densetsu / Konosuba: God's blessing on this wonderful world! Legend of Crimson

image

Страна : Япония

Год выпуска : 2019

Жанр : приключения, комедия, фэнтези, пародия, сверхъестественное

Тип : Movie

Продолжительность : 01:29:58

Режиссер : Канасаки Такаоми

Студия : J.C.Staff

Описание : Приключения четырёх неудачливых героев продолжаются! На этот раз родная деревня Мэгумин и Юн-юн находится под угрозой уничтожения Владыкой демонов, который направляет туда одного из своих генералов. В отчаянии Юн-юн приходит к Казуме и просит его о помощи. Команда приключенцев направляется в деревню, чтобы предотвратить её уничтожение.

Качество : BDRip (Исходник)

Тип релиза : Без хардсаба

Формат видео : AVI

Видео : XviD, 720x400 (16:9), 1534 kbps, 23.976 fps

Аудио 1 : AC3, 448 kbps, 48000 Hz, 6 ch Язык Японский

Аудио 2 : AC3, 160 kbps, 48000 Hz, 2 ch Язык Русский (в составе контейнера) [SHIZA]

Аудио 3 : AC3, 128 kbps, 48000 Hz, 2 ch Язык Русский (внешним файлом) [Amazing Dubbing]

Субтитры 1 : srt, внешние.

Язык субтитров : русский ; Перевод : Crunchyroll

Субтитры 2 : srt, внешние.

Язык субтитров : английский ; Перевод : Crunchyroll

Подробные тех. данные

`
Общее
Полное имя : F:Xvid4Psp TempKono Subarashii Sekai ni Shukufuku wo! Kurenai Densetsu.BDRipKono Subarashii Sekai ni Shukufuku wo! Kurenai Densetsu.avi
Формат : AVI
Формат/Информация : Audio Video Interleave
Размер файла : 1,35 Гбайт
Продолжительность : 1 ч. 29 м.
Общий поток : 2 156 Кбит/сек
Программа кодирования : VirtualDubMod 1.5.10.3 | www.virtualdub-fr.org || (build 2550/release)
Библиотека кодирования : VirtualDubMod build 2550/release

Видео
Идентификатор : 0
Формат : MPEG-4 Visual
Профиль формата : Advanced [email protected]
Настройки формата : BVOP1
Параметр BVOP формата : 1
Параметр QPel формата : Нет
Параметр GMC формата : Без точки перехода
Параметр матрицы формата : Default (MPEG)
Идентификатор кодека : XVID
Идентификатор кодека/Подсказка : XviD
Продолжительность : 1 ч. 29 м.
Битрейт : 1 534 Кбит/сек
Ширина : 720 пикселей
Высота : 400 пикселей
Соотношение сторон : 16:9
Частота кадров : 23,976 (24000/1001) кадра/сек
Частота кадров в оригинале : 23,976 (23976/1000) кадра/сек
Цветовое пространство : YUV
Субдискретизация насыщенности : 4:2:0
Битовая глубина : 8 бит
Тип развёртки : Прогрессивная
Метод сжатия : С потерями
Бит/(Пиксели*Кадры) : 0.222
Размер потока : 987 Мбайт (71%)
Библиотека кодирования : XviD 1.2.1 (UTC 2008-12-04)

Аудио #1
Идентификатор : 1
Формат : AC-3
Формат/Информация : Audio Coding 3
Коммерческое название : Dolby Digital
Идентификатор кодека : 2000
Продолжительность : 1 ч. 29 м.
Вид битрейта : Постоянный
Битрейт : 448 Кбит/сек
Каналы : 6 каналов
Channel layout : L R C LFE Ls Rs
Частота : 48,0 КГц
Частота кадров : 31,250 кадров/сек (1536 SPF)
Метод сжатия : С потерями
Размер потока : 288 Мбайт (21%)
Выравнивание : Разделение по промежуткам
Продолжительность промежутка : 42 мс. (1,00 видеокадр)
Время предзагрузки промежутка : 500 мс.
Service kind : Complete Main

Аудио #2
Идентификатор : 2
Формат : AC-3
Формат/Информация : Audio Coding 3
Коммерческое название : Dolby Digital
Идентификатор кодека : 2000
Продолжительность : 1 ч. 29 м.
Вид битрейта : Постоянный
Битрейт : 160 Кбит/сек
Каналы : 2 канала
Channel layout : L R
Частота : 48,0 КГц
Частота кадров : 31,250 кадров/сек (1536 SPF)
Метод сжатия : С потерями
Размер потока : 103 Мбайт (7%)
Выравнивание : Разделение по промежуткам
Продолжительность промежутка : 42 мс. (1,00 видеокадр)
Время предзагрузки промежутка : 500 мс.
Заголовок : Russian [SHIZA]
Service kind : Complete Main

Общее
Полное имя : F:Xvid4Psp TempKono Subarashii Sekai ni Shukufuku wo! Kurenai Densetsu.BDRipKono Subarashii Sekai ni Shukufuku wo! Kurenai Densetsu.[Amazing Dubbing].ac3
Формат : AC-3
Формат/Информация : Audio Coding 3
Коммерческое название : Dolby Digital
Размер файла : 82,4 Мбайт
Продолжительность : 1 ч. 29 м.
Режим общего битрейта : Постоянный
Общий поток : 128 Кбит/сек

Аудио
Формат : AC-3
Формат/Информация : Audio Coding 3
Коммерческое название : Dolby Digital
Продолжительность : 1 ч. 29 м.
Вид битрейта : Постоянный
Битрейт : 128 Кбит/сек
Каналы : 2 канала
Channel layout : L R
Частота : 48,0 КГц
Частота кадров : 31,250 кадров/сек (1536 SPF)
Метод сжатия : С потерями
Размер потока : 82,4 Мбайт (100%)
Service kind : Complete Main
`

Скриншоты

image image image image image image


More at ibit.to
And ibit.uno
And ibit.am
And ibit.ws

Comments

Files

Stream

Downloading Seeding Kono Subarashii Sekai ni Shukufuku wo!: Kurenai Densetsu from to 0 peers.
of
0 b/s / ↗0 b/s