• 2,147,483,647
  • 5
Download

Description

Katzenjammer. [email protected]

image

Жанр : Folk/Baroque pop/Symphonic pop/Rock/Country

Продолжительность : 00:59:16

Год выпуска : 2015

Описание : Выступление норвежского folk-rock girl бэнда Katzenjammer в эксклюзивной серии концертов перед живой аудиторией [email protected] на сцене Bauhaus в немецком Дессау 2015 mar03

Доп. информация : Собственная запись со спутникового канала 3SAT 2015 mar21

Треклист : My Own Tune
My Dear
Rock-Raper-Scissors
Lady Grey
Rockland
Gods Great
Flash In The Dark
Driving After You
A Bar In Amsterdam
Hey Ho
Land Of Confussion

Качество : HDTV 720p

Контейнер : TS

Видео кодек : H.264

Аудио кодек : AC3

Видео : Mpeg4 AVC, 1280x720, 12700 kbps, 50 fps Progressive

Аудио : AC3, 48 kbps, 48 kHz, 5.1 ch

Аудио 2 : MP2, 256 kbps, 48 kHz, stereo

Аудио 3 : MP2, 192 kbps, 48 kHz, stereo

Отчёт MediaInfo / BDInfo

`General
ID : 1 (0x1)
Complete name : D:DownloadsKatzenjammer. [email protected] 2015.ts
Format : MPEG-TS
File size : 6.06 GiB
Duration : 59mn 16s
Overall bit rate mode : Variable
Overall bit rate : 14.6 Mbps

Video
ID : 6510 (0x196E)
Menu ID : 1 (0x1)
Format : AVC
Format/Info : Advanced Video Codec
Format profile : [email protected]
Format settings, CABAC : Yes
Format settings, ReFrames : 6 frames
Codec ID : 27
Duration : 59mn 16s
Bit rate : 12.8 Mbps
Width : 1 280 pixels
Height : 720 pixels
Display aspect ratio : 16:9
Frame rate : 50.000 fps
Color space : YUV
Chroma subsampling : 4:2:0
Bit depth : 8 bits
Scan type : Progressive
Bits/(Pixel*Frame) : 0.278
Stream size : 5.30 GiB (88%)
Color primaries : BT.709
Transfer characteristics : BT.709
Matrix coefficients : BT.709
Color range : Limited

Audio #1
ID : 6520 (0x1978)
Menu ID : 1 (0x1)
Format : MPEG Audio
Format version : Version 1
Format profile : Layer 2
Codec ID : 3
Duration : 59mn 16s
Bit rate mode : Constant
Bit rate : 256 Kbps
Channel(s) : 2 channels
Sampling rate : 48.0 KHz
Compression mode : Lossy
Stream size : 109 MiB (2%)
Language : German

Audio #2
ID : 6521 (0x1979)
Menu ID : 1 (0x1)
Format : MPEG Audio
Format version : Version 1
Format profile : Layer 2
Codec ID : 3
Duration : 59mn 16s
Bit rate mode : Constant
Bit rate : 192 Kbps
Channel(s) : 2 channels
Sampling rate : 48.0 KHz
Compression mode : Lossy
Stream size : 81.4 MiB (1%)

Audio #3
ID : 6522 (0x197A)
Menu ID : 1 (0x1)
Format : AC-3
Format/Info : Audio Coding 3
Mode extension : CM (complete main)
Format settings, Endianness : Big
Codec ID : 6
Duration : 59mn 16s
Bit rate mode : Constant
Bit rate : 448 Kbps
Channel(s) : 6 channels
Channel positions : Front: L C R, Side: L R, LFE
Sampling rate : 48.0 KHz
Bit depth : 16 bits
Compression mode : Lossy
Stream size : 190 MiB (3%)
Language : German

Audio #4
ID : 6523 (0x197B)
Menu ID : 1 (0x1)
Format : MPEG Audio
Format version : Version 1
Format profile : Layer 2
Codec ID : 3
Duration : 59mn 16s
Bit rate mode : Constant
Bit rate : 192 Kbps
Channel(s) : 2 channels
Sampling rate : 48.0 KHz
Compression mode : Lossy
Stream size : 81.4 MiB (1%)
Language : Multiple languages

Text
ID : 6530 (0x1982)-100
Menu ID : 1 (0x1)
Format : Teletext
Language : German

Menu
ID : 6500 (0x1964)
Menu ID : 1 (0x1)
Duration : 59mn 16s
List : 6510 (0x196E) (AVC) / 6520 (0x1978) (MPEG Audio, German) / 6521 (0x1979) (MPEG Audio) / 6522 (0x197A) (AC-3, German) / 6523 (0x197B) (MPEG Audio, Multiple languages) / 6530 (0x1982) ()
Language : / German / / German / Multiple languages `

Скриншоты

imageimageimageimageimageimageimage


More at ibit.to
And ibit.uno
And ibit.am
And ibit.ws

Comments

Files

Katzenjammer. [email protected] 2015.ts 6.1 GB

Stream

Downloading Seeding Katzenjammer. [email protected] 2015.ts from to 0 peers.
of
0 b/s / ↗0 b/s