• 11
  • 9
  • done
Download

Description

https://yurasuka.com

Is the Order a Rabbit?? / Gochuumon wa Usagi Desu ka?? ~Dear My Sister~ (2017)

A/V Source: lyretain BDMV (JP) Subtitles: Mori Encode Comparison

``` Complete name : Is.the.Order.a.Rabbit.Dear.My.Sister.2017.1080p.BluRay.10-Bit.FLAC2.0.x265-YURASUKA.mkv Format : Matroska Format version : Version 4 File size : 1.52 GiB Duration : 1 h 0 min Overall bit rate mode : Variable Overall bit rate : 3 631 kb/s Movie name : Is the Order a Rabbit?? ~Dear My Sister~ YURASUKA Encoded date : UTC 2022-01-15 00:05:35 Writing application : mkvmerge v63.0.0 ('Everything') 64-bit Writing library : libebml v1.4.2 + libmatroska v1.6.3 Attachments : Rosario-Bold.ttf / Rosario-BoldItalic.ttf / Rosario-Italic.ttf / Rosario-Regular.ttf

Video ID : 1 Format : HEVC Format/Info : High Efficiency Video Coding Format profile : Main [email protected]@Main Codec ID : V_MPEGH/ISO/HEVC Duration : 1 h 0 min Bit rate : 3 023 kb/s Width : 1 920 pixels Height : 1 080 pixels Display aspect ratio : 16:9 Frame rate mode : Constant Frame rate : 23.976 (24000/1001) FPS Color space : YUV Chroma subsampling : 4:2:0 Bit depth : 10 bits Bits/(Pixel*Frame) : 0.061 Stream size : 1.27 GiB (83%) Title : YURASUKA 1080p x265 Writing library : x265 3.5:[Linux][GCC 10.2.0][64 bit] 10bit Encoding settings : cpuid=1111039 / frame-threads=4 / numa-pools=24 / wpp / no-pmode / no-pme / no-psnr / no-ssim / log-level=2 / input-csp=1 / input-res=1920x1080 / interlace=0 / total-frames=0 / level-idc=0 / high-tier=1 / uhd-bd=0 / ref=6 / no-allow-non-conformance / no-repeat-headers / annexb / no-aud / no-hrd / info / hash=0 / no-temporal-layers / open-gop / min-keyint=1 / keyint=360 / gop-lookahead=0 / bframes=16 / b-adapt=2 / b-pyramid / bframe-bias=0 / rc-lookahead=72 / lookahead-slices=4 / scenecut=40 / hist-scenecut=0 / radl=0 / no-splice / no-intra-refresh / ctu=32 / min-cu-size=8 / rect / amp / max-tu-size=32 / tu-inter-depth=4 / tu-intra-depth=4 / limit-tu=0 / rdoq-level=2 / dynamic-rd=0.00 / no-ssim-rd / signhide / tskip / nr-intra=0 / nr-inter=0 / no-constrained-intra / strong-intra-smoothing / max-merge=3 / limit-refs=3 / limit-modes / me=3 / subme=4 / merange=57 / temporal-mvp / no-frame-dup / no-hme / weightp / weightb / no-analyze-src-pics / deblock=0:0 / no-sao / no-sao-non-deblock / rd=4 / selective-sao=0 / no-early-skip / rskip / no-fast-intra / no-tskip-fast / no-cu-lossless / b-intra / no-splitrd-skip / rdpenalty=0 / psy-rd=2.00 / psy-rdoq=2.00 / no-rd-refine / no-lossless / cbqpoffs=0 / crqpoffs=0 / rc=crf / crf=16.0 / qcomp=0.72 / qpstep=4 / stats-write=0 / stats-read=0 / ipratio=1.40 / pbratio=1.30 / aq-mode=3 / aq-strength=0.85 / cutree / zone-count=0 / no-strict-cbr / qg-size=32 / no-rc-grain / qpmax=69 / qpmin=0 / no-const-vbv / sar=0 / overscan=0 / videoformat=5 / range=0 / colorprim=1 / transfer=1 / colormatrix=1 / chromaloc=0 / display-window=0 / cll=0,0 / min-luma=0 / max-luma=1023 / log2-max-poc-lsb=8 / vui-timing-info / vui-hrd-info / slices=1 / no-opt-qp-pps / no-opt-ref-list-length-pps / no-multi-pass-opt-rps / scenecut-bias=0.05 / hist-threshold=0.03 / no-opt-cu-delta-qp / no-aq-motion / no-hdr10 / no-hdr10-opt / no-dhdr10-opt / no-idr-recovery-sei / analysis-reuse-level=0 / analysis-save-reuse-level=0 / analysis-load-reuse-level=0 / scale-factor=0 / refine-intra=0 / refine-inter=0 / refine-mv=1 / refine-ctu-distortion=0 / no-limit-sao / ctu-info=0 / no-lowpass-dct / refine-analysis-type=0 / copy-pic=1 / max-ausize-factor=1.0 / no-dynamic-refine / no-single-sei / no-hevc-aq / no-svt / no-field / qp-adaptation-range=1.00 / scenecut-aware-qp=0conformance-window-offsets / right=0 / bottom=0 / decoder-max-rate=0 / no-vbv-live-multi-pass Language : Japanese Default : Yes Forced : No Color range : Limited Color primaries : BT.709 Transfer characteristics : BT.709 Matrix coefficients : BT.709

Audio ID : 2 Format : FLAC Format/Info : Free Lossless Audio Codec Codec ID : A_FLAC Duration : 1 h 0 min Bit rate mode : Variable Bit rate : 605 kb/s Channel(s) : 2 channels Channel layout : L R Sampling rate : 48.0 kHz Frame rate : 10.417 FPS (4608 SPF) Bit depth : 16 bits Compression mode : Lossless Stream size : 260 MiB (17%) Title : Japanese FLAC 2.0 Writing library : Lavf58.76.100 Language : Japanese Default : Yes Forced : No

Text ID : 3 Format : ASS Codec ID : S_TEXT/ASS Codec ID/Info : Advanced Sub Station Alpha Duration : 59 min 16 s Bit rate : 180 b/s Count of elements : 1334 Compression mode : Lossless Stream size : 78.4 KiB (0%) Title : English Subtitles [Mori] Language : English Default : Yes Forced : No

Menu 00:00:00.000 : :Prologue 00:05:35.230 : :Opening song 00:07:03.940 : :Main 00:53:53.330 : :Ending song 00:58:08.550 : :Epilogue ```

Dead end for a sucker that’s a sucker like me. 私のような吸盤の行き止まりです。


More at ibit.to
And ibit.uno
And ibit.am
And ibit.ws

Comments

Files

Is.the.Order.a.Rabbit.Dear.My.Sister.2017.1080p.BluRay.10-Bit.FLAC2.0.x265-YURASUKA/Is.the.Order.a.Rabbit.Dear.My.Sister.2017.1080p.BluRay.10-Bit.FLAC 1.5 GB

Stream

Downloading Seeding Is.the.Order.a.Rabbit.Dear.My.Sister.2017.1080p.BluRay.10-Bit.FLAC2.0.x265-YURASUKA (Gochuumon wa Usagi Desu ka) from to 0 peers.
of
0 b/s / ↗0 b/s