• -
  • -
  • done
Sponsored Download
  • Horace Tapscott - The Giant Is Awakened (1969, 2017, Solid-Japan)
  • 256 MB
  • fiks22
  • Horace Tapscott Giant Awakened 1969 2017 Solid Japan
  • Зарубежный джаз

Description

Horace Tapscott Quintet - The Giant Is Awakened

image

Жанр : Avant-Garde Jazz, Free Jazz, Contemporary Jazz

Носитель : CD

Страна-производитель диска (релиза) : Япония

Год издания : 2017

Издатель (лейбл) : Flying Dutchman/Solid/Ultra-Vybe

Номер по каталогу : CDSOL-45728

Страна исполнителя (группы) : США

Аудиокодек : FLAC (*.flac)

Тип рипа : tracks+.cue

Продолжительность : 00:38:54

Источник : crawshay

Наличие сканов в содержимом раздачи : нет

Треклист :
01. The Giant Is Awakened (Tapscott) - 17:28
02. For Fats (Blythe) - 2:24
03. The Dark Tree (Tapscott) - 7:04
04. Niger's Theme (Tapscott) - 11:58

Состав :
Horace Tapscott - piano
Black Arthur Blythe - alto saxophone
David Bryant, Walter Savage Jr. - bass
Everett Brown Jr. - drums

Recorded on April 1, 1969.

Лог создания рипа

`X Lossless Decoder version 20181019 (151.1)

XLD extraction logfile from 2019-06-09 12:13:49 -0700

Horace Tapscott Quintet / The Giant Is Awakened

Used drive : HL-DT-ST DVDRW GS23N (revision SB07)
Media type : Pressed CD

Ripper mode : XLD Secure Ripper
Disable audio cache : OK for the drive with a cache less than 1375KiB
Make use of C2 pointers : NO
Read offset correction : 667
Max retry count : 100
Gap status : Analyzed, Appended

TOC of the extracted CD
Track | Start | Length | Start sector | End sector


1 | 00:00:00 | 17:27:47 | 0 | 78571
2 | 17:27:47 | 02:24:07 | 78572 | 89378
3 | 19:51:54 | 07:03:72 | 89379 | 121175
4 | 26:55:51 | 11:58:06 | 121176 | 175031

AccurateRip Summary (DiscID: 0007151f-001b3d3a-2d091d04)
Track 01 : OK (v2, confidence 2/2)
Track 02 : OK (v2, confidence 2/2)
Track 03 : OK (v2, confidence 2/2)
Track 04 : OK (v2, confidence 1/2)
->All tracks accurately ripped.

All Tracks
Album gain : -5.42 dB
Peak : 0.978516
Statistics
Read error : 0
Jitter error (maybe fixed) : 0
Retry sector count : 0
Damaged sector count : 0

Track 01
Filename : /Users/joe/Music/XLD/Horace Tapscott Quintet - The Giant Is Awakened (2017) [FLAC]/01 The Giant Is Awakened.flac
Pre-gap length : 00:02:00

Track gain : -5.40 dB
Peak : 0.978516
CRC32 hash (test run) : 117980D7
CRC32 hash : 117980D7
CRC32 hash (skip zero) : AA12454F
AccurateRip v1 signature : 152CB2B3
AccurateRip v2 signature : 53936F68
->Accurately ripped (v2, confidence 2/2)
Statistics
Read error : 0
Jitter error (maybe fixed) : 0
Retry sector count : 0
Damaged sector count : 0

Track 02
Filename : /Users/joe/Music/XLD/Horace Tapscott Quintet - The Giant Is Awakened (2017) [FLAC]/02 For Fats.flac

Track gain : -6.00 dB
Peak : 0.978516
CRC32 hash (test run) : 66985233
CRC32 hash : 66985233
CRC32 hash (skip zero) : F4097A4D
AccurateRip v1 signature : 3EFC9A80
AccurateRip v2 signature : 3C982C16
->Accurately ripped (v2, confidence 2/2)
Statistics
Read error : 0
Jitter error (maybe fixed) : 0
Retry sector count : 0
Damaged sector count : 0

Track 03
Filename : /Users/joe/Music/XLD/Horace Tapscott Quintet - The Giant Is Awakened (2017) [FLAC]/03 The Dark Tree.flac

Track gain : -5.86 dB
Peak : 0.978516
CRC32 hash (test run) : 1D5DD700
CRC32 hash : 1D5DD700
CRC32 hash (skip zero) : 70E01CBE
AccurateRip v1 signature : 3F861846
AccurateRip v2 signature : 95ED45FE
->Accurately ripped (v2, confidence 2/2)
Statistics
Read error : 0
Jitter error (maybe fixed) : 0
Retry sector count : 0
Damaged sector count : 0

Track 04
Filename : /Users/joe/Music/XLD/Horace Tapscott Quintet - The Giant Is Awakened (2017) [FLAC]/04 Niger's Theme.flac

Track gain : -5.05 dB
Peak : 0.978516
CRC32 hash (test run) : 4BBA90C0
CRC32 hash : 4BBA90C0
CRC32 hash (skip zero) : 56FFD32C
AccurateRip v1 signature : AD527DA4
AccurateRip v2 signature : 6E429F5B
->Accurately ripped (v2, confidence 1/2)
Statistics
Read error : 0
Jitter error (maybe fixed) : 0
Retry sector count : 0
Damaged sector count : 0

No errors occurred

End of status report

-----BEGIN XLD SIGNATURE-----
2rLrokhxVMC8O4nmoEx92v.A5AtL2NJC.Mk9uKRtb4MpN1SPVbL.u8XWVB6xAtblDYpy7Wp5RiWFRVoRGtBC81WaF2s78TLuo8pRG
-----END XLD SIGNATURE----- `

Содержание индексной карты (.CUE)

TITLE "The Giant Is Awakened" PERFORMER "Horace Tapscott" REM GENRE "Jazz" REM DATE "1969" REM DISCID 2D091D04 REM REPLAYGAIN_ALBUM_GAIN -5.42 dB REM REPLAYGAIN_ALBUM_PEAK 0.978516 FILE "01 - The Giant Is Awakened.flac" WAVE TRACK 01 AUDIO TITLE "The Giant Is Awakened" REM REPLAYGAIN_TRACK_GAIN -5.40 dB REM REPLAYGAIN_TRACK_PEAK 0.978516 INDEX 01 00:00:00 FILE "02 - For Fats.flac" WAVE TRACK 02 AUDIO TITLE "For Fats" REM REPLAYGAIN_TRACK_GAIN -6.00 dB REM REPLAYGAIN_TRACK_PEAK 0.978516 INDEX 01 00:00:00 FILE "03 - The Dark Tree.flac" WAVE TRACK 03 AUDIO TITLE "The Dark Tree" REM REPLAYGAIN_TRACK_GAIN -5.86 dB REM REPLAYGAIN_TRACK_PEAK 0.978516 INDEX 01 00:00:00 FILE "04 - Niger's Theme.flac" WAVE TRACK 04 AUDIO TITLE "Niger's Theme" REM REPLAYGAIN_TRACK_GAIN -5.05 dB REM REPLAYGAIN_TRACK_PEAK 0.978516 INDEX 01 00:00:00

Отчет CUETools

`[CUETools log; Date: 10.06.2019 1:23:17; Version: 2.1.6]
[CTDB TOCID: TTCMS2X.DSygBvxEdCzdOQMNY-] found.
Track | CTDB Status
1 | (3/3) Accurately ripped
2 | (3/3) Accurately ripped
3 | (3/3) Accurately ripped
4 | (3/3) Accurately ripped
[AccurateRip ID: 0007151f-001b3d3a-2d091d04] found.
Track [CRC | V2] Status
01 152cb2b3|53936f68 Accurately ripped
02 3efc9a80|3c982c16 Accurately ripped
03 3f861846|95ed45fe Accurately ripped
04 ad527da4|6e429f5b Accurately ripped

Track Peak [CRC32] [W/O NULL]
-- 97,8 [164C3C60] [5178109D]
01 97,8 [117980D7] [AA12454F]
02 97,8 [66985233] [F4097A4D]
03 97,8 [1D5DD700] [70E01CBE]
04 97,8 [4BBA90C0] [56FFD32C] `

Об альбоме (сборнике)

There are very few musicians who can be turned towards to feel the beating heart of African-American ethos. Horace Tapscott is one of them. The blunt force with which he strikes piano keys is reminiscent of the hard edge in the deepest part of the blues. The angularity of his attack, which makes for a dramatic, slanted enunciation, also reminds the listener that the blues can also be beautiful and subtle. In Mr. Tapscott’s musicianship there is also the reminder that the blues swings and is ebullient as it proclaims the triumph of human endeavour, but it is also haunting as it traverses through all the pain of being black in America. This is why he always gave the feeling of being heraldic and served as a moral compass for musicians and listeners alike. Mr. Tapscott’s music produced an elemental ache in the heart of the listener just as much as it shaped the eventual joy that came from experiencing that melancholic thorn in the soul. Such was the power of Horace Tapscott’s music as it roamed the topography of African-American culture that it described the racism against a people in a brutal and unexpurgated way. But more than anything, more than the striking mirror it held up against society, it reflected the anguish of discrimination and the art that pronounced it.
Horace-Tapscott-The-Giant-is-Awakened-FinalHorace Tapscott’s seminal recording The Giant is Awakened was cause for celebration when it was first produced in 1969 by Bob Thiele and released on the Flying Dutchman imprint. And now, Jonathan Horwich and his International Phonograph Inc. have produced a brilliantly packaged re-issue. This is a project worthy of recognition all over again for all of the reasons mentioned earlier. But it is also worthy of remembering again for the genius of Mr. Tapscott’s writing. First of all, like all modern masters, the pianist shows his deep sense of history. He belongs to the finest tradition not only of pianists but also of musicians who held fast to unbridled excellence. “Fats” Waller—the genius he celebrates in his own composition ensrcd “Fats”—runs through his veins and spills out onto the keyboard. And like that other genius, Mr. Tapscott wastes no time on useless virtuosity. Each note is heartfelt, but is also precisely where it should be. This makes for the lean and sinewy manner in which his phrasing and also his lines excite the listener. His stories are also vivid: They can be ominous as in “The Giant is Awakened” and “The Dark Tree” and they can also be fantastic as they unfolded in a vivid, yet dreamlike manner, as in “Niger’s Theme”.
At a time when much music is thin on substance this record is a timely reminder that great music should never be forgotten. Unfortunately the record also comes at a time when John Coltrane’s Offering and Charles Lloyd’s Manhattan Stories are being lionized in the press. But The Giant is Awakened should not be allowed to pass like a ship in the night. Nor should the importance of Mr. Horwich’s endeavours be allowed to be in vain. This is and will always be an important record returning at an important but unfortunate time in the history of discrimination against the African-American Diaspora.
-- Raul da Gama


More at ibit.to
And ibit.uno
And ibit.ws

Comments

Files

Horace Tapscott - The Giant Is Awakened (1969, 2017, Solid-Japan)Artworkfront.jpg 97 kB
Horace Tapscott - The Giant Is Awakened (1969, 2017, Solid-Japan)Artworkback.jpg 84 kB
Horace Tapscott - The Giant Is Awakened (1969, 2017, Solid-Japan)01 - The Giant Is Awakened.flac 110 MB
Horace Tapscott - The Giant Is Awakened (1969, 2017, Solid-Japan)04 - Niger's Theme.flac 80 MB
Horace Tapscott - The Giant Is Awakened (1969, 2017, Solid-Japan)03 - The Dark Tree.flac 49 MB
Horace Tapscott - The Giant Is Awakened (1969, 2017, Solid-Japan)02 - For Fats.flac 16 MB
Horace Tapscott - The Giant Is Awakened (1969, 2017, Solid-Japan)folder.jpg 52 kB
Horace Tapscott - The Giant Is Awakened (1969, 2017, Solid-Japan)Horace Tapscott - The Giant Is Awakened.log 4.4 kB
Horace Tapscott - The Giant Is Awakened (1969, 2017, Solid-Japan)The Giant Is Awakened.cue 903 B
Horace Tapscott - The Giant Is Awakened (1969, 2017, Solid-Japan)The Giant Is Awakened.accurip 833 B
Horace Tapscott - The Giant Is Awakened (1969, 2017, Solid-Japan)Horace Tapscott - The Giant Is Awakened.m3u 103 B

Stream

Downloading Seeding Horace Tapscott - The Giant Is Awakened (1969, 2017, Solid-Japan) from to 0 peers.
of
0 b/s / ↗0 b/s