• -
  • -
  • done
Download
  • History of Swear Words
  • 1.2 GB
  • gazzil666
  • History Swear Words
  • Главная

Description

История бранных слов / History of Swear Words

image

Год выпуска : 2021

Страна : США

Жанр : Документальный, комедия

Продолжительность : ~00:20:00

Перевод : Профессиональный (одноголосый закадровый)

Режиссёр : Кристофер Д’Илайа

В ролях : Никки Глейсер
Лондон Хьюз
Элвис Митчелл
Кори Стэмпер
Николас Кейдж
ДеРэй Дэвис
Ник Офферман
Сара Силверман
Джим Джефферис
Патти Харрисон
Опен Майк Эгил
Зайнаб Джонсон
Мирей Миллер-Янг
Барон Вон
Исайя Уитлок мл.
Алисия Кастиль

Описание : Рассказ о самых распространенных бранных словах английского языка, их истории и влиянии на культуру.

Сэмпл : http://sendfile.su/1590712

Качество : WEBRip

Формат : MP4

Видео : MP4 Video File ,720x400(16:9),23.98 кадров/сек,1332 Кбит/сек

Аудио : AC3,48 Кгц,2 канала,255 Кбит/сек(Английский)

Субтитры : Отсутствуют

Реклама :
Отсутствует

Список серий

01.Fk.
02.Sh*t.
03.Bitch.
04.D
k.
05.Pu**y.
06.Damn.

MediaInfo

Общее
Полное имя : D:History.of.Swear.Words.S01.WEBRip.x264History.of.Swear.Words.S01E01.WEBRip.x264.mp4
Формат : MPEG-4
Профиль формата : Base Media
Идентификатор кодека : isom (isom/iso2/avc1/mp41)
Размер файла : 200 Мбайт
Продолжительность : 20 м. 53 с.
Общий поток : 1 338 Кбит/сек
Название фильма : History.of.Swear.Words.S01E01.WEBRip.x264-ION10
Дата кодирования : UTC 2021-01-05 07:13:07
Дата пометки : UTC 2021-01-05 07:13:07
Программа кодирования : Lavf58.0.101
Примечание : History.of.Swear.Words.S01E01.WEBRip.x264-ION10

Видео
Идентификатор : 1
Формат : AVC
Формат/Информация : Advanced Video Codec
Профиль формата : [email protected]
Настройки формата : CABAC / 5 Ref Frames
Параметр CABAC формата : Да
Параметр RefFrames формата : 5 кадров
Идентификатор кодека : avc1
Идентификатор кодека/Информация : Advanced Video Coding
Продолжительность : 20 м. 53 с.
Битрейт : 1 100 Кбит/сек
Ширина : 720 пикселей
Высота : 400 пикселей
Соотношение сторон : 16:9
Режим частоты кадров : Постоянный
Частота кадров : 23,976 (24000/1001) кадра/сек
Цветовое пространство : YUV
Субдискретизация насыщенности : 4:2:0
Битовая глубина : 8 бит
Тип развёртки : Прогрессивная
Бит/(Пиксели*Кадры) : 0.159
Размер потока : 161 Мбайт (80%)
Заголовок : History.of.Swear.Words.S01E01.WEBRip.x264-ION10
Библиотека кодирования : x264 core 148 r2795M aaa9aa8
Настройки программы : cabac=1 / ref=5 / deblock=1:-1:-1 / analyse=0x3:0x113 / me=umh / subme=9 / psy=1 / psyrd=1.00:0.15 / mixedref=1 / merange=16 / chromame=1 / trellis=2 / 8x8dct=1 / cqm=0 / deadzone=21,11 / fastpskip=1 / chromaqpoffset=-3 / threads=24 / lookaheadthreads=2 / slicedthreads=0 / nr=0 / decimate=1 / interlaced=0 / bluraycompat=0 / constrainedintra=0 / bframes=3 / bpyramid=2 / badapt=2 / bbias=0 / direct=3 / weightb=1 / opengop=0 / weightp=2 / keyint=250 / keyintmin=23 / scenecut=40 / intrarefresh=0 / rclookahead=50 / rc=abr / mbtree=1 / bitrate=1100 / ratetol=1.0 / qcomp=0.60 / qpmin=0 / qpmax=69 / qpstep=4 / ip_ratio=1.40 / aq=1:1.00
Язык : English
Дата кодирования : UTC 2021-01-05 07:13:07
Дата пометки : UTC 2021-01-05 07:13:07
Codec configuration box : avcC

Аудио
Идентификатор : 2
Формат : AAC LC
Формат/Информация : Advanced Audio Codec Low Complexity
Идентификатор кодека : mp4a-40-2
Продолжительность : 20 м. 53 с.
Duration_LastFrame : -11 мс.
Вид битрейта : Постоянный
Битрейт : 256 Кбит/сек
Каналы : 2 канала
Channel layout : L R
Частота : 48,0 КГц
Частота кадров : 46,875 кадров/сек (1024 SPF)
Метод сжатия : С потерями
Размер потока : 38,2 Мбайт (19%)
Заголовок : History.of.Swear.Words.S01E01.WEBRip.x264-ION10
Язык : English
Default : Да
Alternate group : 1
Дата кодирования : UTC 2021-01-05 07:13:07
Дата пометки : UTC 2021-01-05 07:13:07

Скриншоты

image
image
image

Предыдущие и альтернативные раздачи


More at ibit.to
And ibit.uno
And ibit.am
And ibit.ws

Comments

1 week ago

д`элия он.....а не "дилдаййя"

Files

Stream

Downloading Seeding History of Swear Words from to 0 peers.
of
0 b/s / ↗0 b/s