• -
  • -
  • done
Sponsored Downloadondemand_video
  • Hanna Season 1 WEB-DLRip
  • 5.6 GB
  • ruddle
  • Hanna Season WEB DLRip
  • Зарубежные сериалы
64%

Hanna: Season 1(2019)

  • 1
  • Action & Adventure Drama
  • This thriller and coming-of-age drama follows the journey of an extraordinary young girl as she evades the relentless pursuit of an off-book CIA agent and tries to unearth the truth behind who she is. Based on the 2011 Joe Wright film.

    expand_more
    English

    Description

    Ханна / Hanna

    image

    Год выпуска:

    2019

    Страна:

    США

    Жанр:

    боевик, драма

    Продолжительность:

    ~ 00:48:00

    Перевод:

    Любительский (многоголосый закадровый)

    | TVShows

    Субтитры:

    нет

    Режиссёр:

    Сара Адина, Андерс Энгстрем, Джон Джонс


    В ролях:

    Эсме Крид-Майлс, Мирей Инос, Юэль Киннаман, Рианна Баррето, Фелисьен Джаттнер, Халид Абдалла, Кемаал Дин-Эллис, Фалдут Шарма, Бенно Фюрман

    Описание

    :
    В центре внимания сюжета оказывается девушка, которая была воспитана одним отцом и проживала на севере Польши. Строгий папа был военным, который чаще всего ходил на разведку и оставлял дом на присмотр дочери. Между делом герой обучал девочку самозащите: боевые навыки, способность скрываться от преследования, выживание в суровых условиях - всему этому главная героиня научилась у отца. Годами семья Ханны скрывалась от посторонних глаз, но теперь на них вышел агент ЦРУ Марисс.


    Качество:

    WEB-DLRip

    Формат:

    AVI

    Видео кодек:

    XviD

    Видео:

    704x352 (2.00:1), 23.976 fps, XviD build 73 ~1600 kbps avg, 0.27 bit/pixel

    Аудио Rus:

    48 kHz, AC3 Dolby Digital, 2/0 (L,R) ch, ~192 kbps


    Рип : Ruddle

    Реклама отсутствует


    image image image


    Все раздачи сериала


    MI

    Код:

    Общее
    Полное имя                               : D:Hanna Season 1 WEB-DLRipHanna.s01e01.WEB-DLRip.RGzsRutracker.avi
    Формат                                   : AVI
    Формат/Информация                        : Audio Video Interleave
    Размер файла                             : 621 Мбайт
    Продолжительность                        : 48 м. 13 с.
    Общий поток                              : 1800 Кбит/сек
    Программа кодирования                    : VirtualDubMod 1.5.10.3 | www.virtualdub-fr.org || (build 2550/release)
    Библиотека кодирования                   : VirtualDubMod build 2550/release

    Видео
    Идентификатор                            : 0
    Формат                                   : MPEG-4 Visual
    Профиль формата                          : Advanced Simple@L5
    Настройки формата                        : BVOP1
    Параметр BVOP формата                    : 1
    Параметр QPel формата                    : Нет
    Параметр GMC формата                     : Без точки перехода
    Параметр матрицы формата                 : Default (MPEG)
    Идентификатор кодека                     : XVID
    Идентификатор кодека/Подсказка           : XviD
    Продолжительность                        : 48 м. 13 с.
    Битрейт                                  : 1599 Кбит/сек
    Ширина                                   : 704 пикселя
    Высота                                   : 352 пикселя
    Соотношение сторон                       : 2,000
    Частота кадров                           : 23,976 (24000/1001) кадра/сек
    Цветовое пространство                    : YUV
    Субдискретизация насыщенности            : 4:2:0
    Битовая глубина                          : 8 бит
    Тип развёртки                            : Прогрессивная
    Метод сжатия                             : С потерями
    Бит/(Пиксели*Кадры)                      : 0.269
    Размер потока                            : 552 Мбайт (89%)
    Библиотека кодирования                   : XviD 73

    Аудио
    Идентификатор                            : 1
    Формат                                   : AC-3
    Формат/Информация                        : Audio Coding 3
    Идентификатор кодека                     : 2000
    Продолжительность                        : 48 м. 13 с.
    Вид битрейта                             : Постоянный
    Битрейт                                  : 192 Кбит/сек
    Каналы                                   : 2 канала
    Расположение каналов                     : Front: L R
    Частота                                  : 48,0 КГц
    Частота кадров                           : 31,250 кадров/сек (1536 SPF)
    Битовая глубина                          : 16 бит
    Метод сжатия                             : С потерями
    Размер потока                            : 66,2 Мбайт (11%)
    Выравнивание                             : Разделение по промежуткам
    Продолжительность промежутка             : 42  мс. (1,00 видеокадр)
    Время предзагрузки промежутка            : 500  мс.
    ServiceKind/String                       : Complete Main

    Скриншоты

    image image image
    image image image

    Релиз группы

    :

    image


    More at ibit.to
    And ibit.uno
    And ibit.ws

    Reviews

    Hanna is a adaptation of the rather excellent film of the same name from 2011. The choice of actors, sets and the general vibe of the series closely and in my view wisely, mirrors the film. That said, as might be expected the story diverges but its general direction is unconvincing. Why, for example, would an isolationist ex CIA operative rely on the very organisation he betrayed arrange his escape and that of Hanna? Especially given the emphasis he places on independence and a "trust no one" mentality? Not to mention his extensive contacts. Its these flaws the pull this series down to a degree which is a shame as it captures the discordant, unsettling atmosphere of the original movie nicely. Not a bad watch but not in the same class as the film. 6/10 from me.

    Comments

    4 days ago

    Просьба ко всем, при перезалитии раздач на другие трекеры (сайты) , имеющих в названии файлов надпись - RGzsRutracker, обязательно размещать в оформлении этот баннер: Всем спасибо за понимание. Приятного просмотра.

    4 days ago

    √ проверено

    Files

    Hanna Season 1 WEB-DLRipHanna.s01e01.WEB-DLRip.RGzsRutracker.avi 651 MB
    Hanna Season 1 WEB-DLRipHanna.s01e02.WEB-DLRip.RGzsRutracker.avi 637 MB
    Hanna Season 1 WEB-DLRipHanna.s01e03.WEB-DLRip.RGzsRutracker.avi 730 MB
    Hanna Season 1 WEB-DLRipHanna.s01e04.WEB-DLRip.RGzsRutracker.avi 781 MB
    Hanna Season 1 WEB-DLRipHanna.s01e05.WEB-DLRip.RGzsRutracker.avi 730 MB
    Hanna Season 1 WEB-DLRipHanna.s01e06.WEB-DLRip.RGzsRutracker.avi 697 MB
    Hanna Season 1 WEB-DLRipHanna.s01e07.WEB-DLRip.RGzsRutracker.avi 675 MB
    Hanna Season 1 WEB-DLRipHanna.s01e08.WEB-DLRip.RGzsRutracker.avi 654 MB

    Stream

    Downloading Seeding Hanna Season 1 WEB-DLRip from to 0 peers.
    of
    0 b/s / ↗0 b/s