• -
  • -
  • done
Sponsored Downloadondemand_video
  • Grendel.1997.DVDRip.x264.Rus.Eng-TMNEMONIC.mkv
  • 1.5 GB
  • levictus
  • Grendel 1997 DVDRip x264 Rus Eng TMNEMONIC mkv
  • Зарубежное кино
26%

Grendel (2007)

King Higlack of the Gauths entrusts prince Finn and a fire ball weapon to his champion, slayer Beowulf. They lead twelve men on a mission to help king Hrothgar of the Danes, whose once glorious realm is terrorized by the undefeated monster Grendel. The task is made more difficult as Hrothgar kept gruesome secrets.

English

Description

Грендель / Grendel

image

Страна : США

Студия : NBC Universal Television

Жанр : фантастика, фэнтези, драма

Год выпуска : 2007

Продолжительность : 01:25:20

Перевод : Профессиональный (двухголосый закадровый)

Субтитры : нет

Оригинальная аудиодорожка : английский

Режиссер : Ник Лион / Nick Lyon

В ролях : Крис Бруно (Chris Bruno), Марина Сиртис (Marina Sirtis), Майкл Дж. Майнор (Michael J. Minor), Чарлз Хиттингер (Charles Hittinger), Алексис Кендра (Alexis Kendra), Бен Кросс (Ben Cross), Атанас Сребрев (Atanas Srebrev), Андрей Слабаков (Andrey Slabakov), Гарри Аничкин (Harry Anichkin), Максим Генчев (Maxim Genchev)

Описание : Минуя страшную бурю, великий воин Беовулф с командой верных бойцов плывет через море, в древнее датское королевство, чтобы сразиться с Гренделем. Это сын Каина, продолжатель рода атлантов, наполовину зверь, наполовину человек. Он наводит ужас на всю округу зверскими убийствами и легенды о нем ходят по всему свету.

Доп. информация : x264 DVDRip на базе DVD5 релиза от batonchik (спасибо!).

imageimage

Сэмпл : http://multi-up.com/1236549

Качество видео : DVDRip-AVC

Формат видео : MKV

Видео : 718x480 (850x480 anamorphic, 16:9), 23.976 fps, x264 core 157, ~1,991 kbps, 8 bit, 0.241 bit/pixel

Аудио : Russian, 48.0 KHz, AC3, 2.0 ch, 192 Kbps

Аудио 2 : English, 48.0 KHz, AC3, 2.0 ch, 192 Kbps

MediaInfo

`General
Unique ID : 315754054332675511789592320259758220462 (0xED8C04D20C9C830E643EFEE77FBBE4AE)
Complete name : Grendel.1997.DVDRip.x264.Rus.Eng-TMNEMONIC.mkv
Format : Matroska
Format version : Version 4
File size : 1.42 GiB
Duration : 1 h 25 min
Overall bit rate : 2 377 kb/s
Movie name : Grendel (2007)
Encoded date : UTC 2019-07-12 00:07:23
Writing application : mkvmerge v35.0.0 ('All The Love In The World') 64-bit
Writing library : libebml v1.3.9 + libmatroska v1.5.2

Video
ID : 1
Format : AVC
Format/Info : Advanced Video Codec
Format profile : Main@L4.1
Format settings : CABAC / 16 Ref Frames
Format settings, CABAC : Yes
Format settings, Reference frames : 16 frames
Codec ID : VMPEG4/ISO/AVC
Duration : 1 h 25 min
Bit rate : 1 991 kb/s
Width : 718 pixels
Height : 480 pixels
Display aspect ratio : 16:9
Frame rate mode : Constant
Frame rate : 23.976 (24000/1001) FPS
Color space : YUV
Chroma subsampling : 4:2:0
Bit depth : 8 bits
Scan type : Progressive
Bits/(Pixel*Frame) : 0.241
Stream size : 1.19 GiB (84%)
Title : [x264][TMNEMONIC]
Writing library : x264 core 157 r2935 545de2f
Encoding settings : cabac=1 / ref=16 / deblock=1:-1:-1 / analyse=0x1:0x131 / me=umh / subme=10 / psy=1 / psy
rd=1.00:0.15 / mixedref=1 / merange=24 / chromame=1 / trellis=2 / 8x8dct=0 / cqm=0 / deadzone=21,11 / fastpskip=1 / chromaqpoffset=-3 / threads=15 / lookaheadthreads=2 / slicedthreads=0 / nr=0 / decimate=1 / interlaced=0 / bluraycompat=0 / constrainedintra=0 / bframes=8 / bpyramid=2 / badapt=2 / bbias=0 / direct=3 / weightb=1 / opengop=0 / weightp=2 / keyint=240 / keyintmin=24 / scenecut=40 / intrarefresh=0 / rclookahead=60 / rc=crf / mbtree=1 / crf=16.5 / qcomp=0.60 / qpmin=0 / qpmax=69 / qpstep=4 / vbvmaxrate=50000 / vbvbufsize=62500 / crfmax=0.0 / nalhrd=none / filler=0 / ipratio=1.40 / aq=1:1.00
Default : Yes
Forced : No
Color range : Limited
Color primaries : BT.601 NTSC
Transfer characteristics : BT.709
Matrix coefficients : BT.601

Audio #1
ID : 2
Format : AC-3
Format/Info : Audio Coding 3
Commercial name : Dolby Digital
Codec ID : A_AC3
Duration : 1 h 25 min
Bit rate mode : Constant
Bit rate : 192 kb/s
Channel(s) : 2 channels
Channel layout : L R
Sampling rate : 48.0 kHz
Frame rate : 31.250 FPS (1536 SPF)
Bit depth : 16 bits
Compression mode : Lossy
Stream size : 117 MiB (8%)
Title : [2.0][DVO]
Language : Russian
Service kind : Complete Main
Default : Yes
Forced : No

Audio #2
ID : 3
Format : AC-3
Format/Info : Audio Coding 3
Commercial name : Dolby Digital
Codec ID : A_AC3
Duration : 1 h 25 min
Bit rate mode : Constant
Bit rate : 192 kb/s
Channel(s) : 2 channels
Channel layout : L R
Sampling rate : 48.0 kHz
Frame rate : 31.250 FPS (1536 SPF)
Bit depth : 16 bits
Compression mode : Lossy
Stream size : 117 MiB (8%)
Title : [2.0]
Language : English
Service kind : Complete Main
Default : No
Forced : No

Menu
00:00:00.000 : :Chapter 1
00:13:18.298 : :Chapter 2
00:27:25.853 : :Chapter 3
00:43:43.579 : :Chapter 4
01:01:36.693 : :Chapter 5
01:15:27.606 : :Chapter 6 `

Скриншот c названием фильма

image

Скриншоты

image image image image image image image image image image image image image image image


More at ibit.to
And ibit.uno
And ibit.ws

Reviews

Comments

Files

Grendel.1997.DVDRip.x264.Rus.Eng-TMNEMONIC.mkv 1.5 GB

Stream

Downloading Seeding Grendel.1997.DVDRip.x264.Rus.Eng-TMNEMONIC.mkv from to 0 peers.
of
0 b/s / ↗0 b/s