• 0
  • 0
Download
  • Garbarek, Gismonti, Haden - Magico, Carta de Amor (2012)[FLAC]{ecm 2280-81}
  • 596 MB
  • deepofrain
  • Garbarek Gismonti Haden Magico Carta Amor 2012 FLAC ecm 2280
  • Зарубежный джаз

Description

Jan Garbarek - Egberto Gismonti - Charlie Haden

Magico: Carta de Amor


image

Жанр : ecm, norway, world fusion

Год издания : 2012

Издатель (лейбл) : ecm

Номер по каталогу : 2280-81

Аудиокодек : FLAC (*.flac)

Тип рипа : tracks+.cue

Битрейт аудио : lossless

Продолжительность :01:47:56

Источник (релизер) : network

Наличие сканов в содержимом раздачи : да

Треклист :

CD 1:

  1. Carta de Amor
  2. La Pasionaria
  3. Cego Aderaldo
  4. Folk Song
  5. Don Quixote
  6. Spor

CD 2:

  1. Branquinho
  2. All That Is Beautiful
  3. Palhaço
  4. Two Folk Songs
  5. Carta de Amor, var.

Запись 1981 года в Мюнхене

Jan Garbarek tenor and soprano saxophones
Egberto Gismonti guitars, piano
Charlie Haden bass

Лог создания рипа 1

`Exact Audio Copy V1.0 beta 3 from 29. August 2011

EAC extraction logfile from 9. November 2012, 19:39

Garbarek, Gismonti, Haden / Magico - Carta de Amor - CD 1

Used drive : HL-DT-STDVD-RAM GH22NP21 Adapter: 2 ID: 0

Read mode : Secure
Utilize accurate stream : Yes
Defeat audio cache : Yes
Make use of C2 pointers : No

Read offset correction : 102
Overread into Lead-In and Lead-Out : No
Fill up missing offset samples with silence : Yes
Delete leading and trailing silent blocks : No
Null samples used in CRC calculations : Yes
Used interface : Native Win32 interface for Win NT & 2000
Gap handling : Appended to previous track

Used output format : User Defined Encoder
Selected bitrate : 1024 kBit/s
Quality : High
Add ID3 tag : No
Command line compressor : C:Program Files (x86)Exact Audio CopyFlacflac.exe
Additional command line options : -8 -V -T "ARTIST=%artist%" -T "TITLE=%src%" -T "ALBUM=%albumsrc%" -T "DATE=%year%" -T "TRACKNUMBER=%tracknr%" -T "TOTALTRACKS=%numtracks%" -T "GENRE=%genre%" -T "ALBUMARTIST=%albumartist%" -T "ALBUM ARTIST=%albumartist%" -T "COMMENT=EAC Secure Mode, Test & Copy, AccurateRip, FLAC -8" %source%

TOC of the extracted CD

Track | Start | Length | Start sector | End sector


1 | 0:00.00 | 7:25.06 | 0 | 33380
2 | 7:25.06 | 16:26.10 | 33381 | 107340
3 | 23:51.16 | 9:50.73 | 107341 | 151663
4 | 33:42.14 | 8:09.73 | 151664 | 188411
5 | 41:52.12 | 8:25.19 | 188412 | 226305
6 | 50:17.31 | 14:01.07 | 226306 | 289387

Track 1

Filename Z:#TorrentsEigeneGarbarek, Gismonti, Haden - Magico, Carta de Amor (2012)[FLAC]{ecm 2280-81}CD 101 - Carta de Amor.wav

Pre-gap length 0:00:02.00

Peak level 69.6 %
Extraction speed 1.7 X
Track quality 100.0 %
Test CRC E3B5B0DA
Copy CRC E3B5B0DA
Track not present in AccurateRip database
Copy OK

Track 2

Filename Z:#TorrentsEigeneGarbarek, Gismonti, Haden - Magico, Carta de Amor (2012)[FLAC]{ecm 2280-81}CD 102 - La Pasionaria.wav

Peak level 71.7 %
Extraction speed 2.4 X
Track quality 100.0 %
Test CRC 34BD4BB9
Copy CRC 34BD4BB9
Track not present in AccurateRip database
Copy OK

Track 3

Filename Z:#TorrentsEigeneGarbarek, Gismonti, Haden - Magico, Carta de Amor (2012)[FLAC]{ecm 2280-81}CD 103 - Cego Aderaido.wav

Peak level 72.2 %
Extraction speed 2.6 X
Track quality 99.9 %
Test CRC A536BBE1
Copy CRC A536BBE1
Track not present in AccurateRip database
Copy OK

Track 4

Filename Z:#TorrentsEigeneGarbarek, Gismonti, Haden - Magico, Carta de Amor (2012)[FLAC]{ecm 2280-81}CD 104 - Folk Song.wav

Peak level 54.6 %
Extraction speed 2.9 X
Track quality 100.0 %
Test CRC 06BFFD91
Copy CRC 06BFFD91
Track not present in AccurateRip database
Copy OK

Track 5

Filename Z:#TorrentsEigeneGarbarek, Gismonti, Haden - Magico, Carta de Amor (2012)[FLAC]{ecm 2280-81}CD 105 - Don Quixote.wav

Peak level 48.8 %
Extraction speed 2.9 X
Track quality 99.9 %
Test CRC 7D875142
Copy CRC 7D875142
Track not present in AccurateRip database
Copy OK

Track 6

Filename Z:#TorrentsEigeneGarbarek, Gismonti, Haden - Magico, Carta de Amor (2012)[FLAC]{ecm 2280-81}CD 106 - Spor.wav

Peak level 82.9 %
Extraction speed 3.6 X
Track quality 100.0 %
Test CRC 94EB8B91
Copy CRC 94EB8B91
Track not present in AccurateRip database
Copy OK

None of the tracks are present in the AccurateRip database

No errors occurred

End of status report

---- CUETools DB Plugin V2.1.3

[CTDB TOCID: oZsuH70jr9aHGgO6zgv0dyUcZTc-] found, Submit result: oZsuH70jr9aHGgO6zgv0dyUcZTc- has been confirmed
c297ed9e Accurately ripped

==== Log checksum 13EC625D61396E06C875A5816C86B9B2A5BD5EFBF805C8E55A9C872E89980C79 ==== `

Содержание индексной карты (.CUE) 1

REM GENRE Jazz REM DATE 2012 REM DISCID 3D0F1206 REM COMMENT "ExactAudioCopy v1.0b3" PERFORMER "Garbarek, Gismonti, Haden" TITLE "Magico - Carta de Amor - CD 1" FILE "01 - Carta de Amor.wav" WAVE TRACK 01 AUDIO TITLE "Carta de Amor" PERFORMER "Garbarek, Gismonti, Haden" INDEX 01 00:00:00 FILE "02 - La Pasionaria.wav" WAVE TRACK 02 AUDIO TITLE "La Pasionaria" PERFORMER "Garbarek, Gismonti, Haden" INDEX 01 00:00:00 FILE "03 - Cego Aderaido.wav" WAVE TRACK 03 AUDIO TITLE "Cego Aderaido" PERFORMER "Garbarek, Gismonti, Haden" INDEX 01 00:00:00 FILE "04 - Folk Song.wav" WAVE TRACK 04 AUDIO TITLE "Folk Song" PERFORMER "Garbarek, Gismonti, Haden" INDEX 01 00:00:00 FILE "05 - Don Quixote.wav" WAVE TRACK 05 AUDIO TITLE "Don Quixote" PERFORMER "Garbarek, Gismonti, Haden" INDEX 01 00:00:00 FILE "06 - Spor.wav" WAVE TRACK 06 AUDIO TITLE "Spor" PERFORMER "Garbarek, Gismonti, Haden" INDEX 01 00:00:00

Лог создания рипа 2

`Exact Audio Copy V1.0 beta 3 from 29. August 2011

EAC extraction logfile from 9. November 2012, 20:22

Garbarek, Gismonti, Haden / Magico - Carta de Amor - CD 2

Used drive : HL-DT-STDVD-RAM GH22NP21 Adapter: 2 ID: 0

Read mode : Secure
Utilize accurate stream : Yes
Defeat audio cache : Yes
Make use of C2 pointers : No

Read offset correction : 102
Overread into Lead-In and Lead-Out : No
Fill up missing offset samples with silence : Yes
Delete leading and trailing silent blocks : No
Null samples used in CRC calculations : Yes
Used interface : Native Win32 interface for Win NT & 2000
Gap handling : Appended to previous track

Used output format : User Defined Encoder
Selected bitrate : 1024 kBit/s
Quality : High
Add ID3 tag : No
Command line compressor : C:Program Files (x86)Exact Audio CopyFlacflac.exe
Additional command line options : -8 -V -T "ARTIST=%artist%" -T "TITLE=%src%" -T "ALBUM=%albumsrc%" -T "DATE=%year%" -T "TRACKNUMBER=%tracknr%" -T "TOTALTRACKS=%numtracks%" -T "GENRE=%genre%" -T "ALBUMARTIST=%albumartist%" -T "ALBUM ARTIST=%albumartist%" -T "COMMENT=EAC Secure Mode, Test & Copy, AccurateRip, FLAC -8" %source%

TOC of the extracted CD

Track | Start | Length | Start sector | End sector


1 | 0:00.00 | 7:37.11 | 0 | 34285
2 | 7:37.11 | 15:35.24 | 34286 | 104434
3 | 23:12.35 | 9:12.69 | 104435 | 145903
4 | 32:25.29 | 3:39.59 | 145904 | 162387
5 | 36:05.13 | 7:35.07 | 162388 | 196519

Track 1

Filename Z:#TorrentsEigeneGarbarek, Gismonti, Haden - Magico, Carta de Amor (2012)[FLAC]{ecm 2280-81}CD 201 - Branquinho.wav

Pre-gap length 0:00:02.00

Peak level 63.7 %
Extraction speed 1.6 X
Track quality 99.9 %
Test CRC 664A0063
Copy CRC 664A0063
Track not present in AccurateRip database
Copy OK

Track 2

Filename Z:#TorrentsEigeneGarbarek, Gismonti, Haden - Magico, Carta de Amor (2012)[FLAC]{ecm 2280-81}CD 202 - All That Is Beautiful.wav

Peak level 78.3 %
Extraction speed 2.4 X
Track quality 100.0 %
Test CRC F9E0283A
Copy CRC F9E0283A
Track not present in AccurateRip database
Copy OK

Track 3

Filename Z:#TorrentsEigeneGarbarek, Gismonti, Haden - Magico, Carta de Amor (2012)[FLAC]{ecm 2280-81}CD 203 - Palhaco.wav

Peak level 69.0 %
Extraction speed 2.7 X
Track quality 100.0 %
Test CRC 8A98CCBA
Copy CRC 8A98CCBA
Track not present in AccurateRip database
Copy OK

Track 4

Filename Z:#TorrentsEigeneGarbarek, Gismonti, Haden - Magico, Carta de Amor (2012)[FLAC]{ecm 2280-81}CD 204 - Two Folk Songs.wav

Peak level 72.1 %
Extraction speed 2.2 X
Track quality 99.9 %
Test CRC 90247C75
Copy CRC 90247C75
Track not present in AccurateRip database
Copy OK

Track 5

Filename Z:#TorrentsEigeneGarbarek, Gismonti, Haden - Magico, Carta de Amor (2012)[FLAC]{ecm 2280-81}CD 205 - Carta de Amor - var.wav

Peak level 87.6 %
Extraction speed 3.0 X
Track quality 100.0 %
Test CRC A92009A5
Copy CRC A92009A5
Track not present in AccurateRip database
Copy OK

None of the tracks are present in the AccurateRip database

No errors occurred

End of status report

---- CUETools DB Plugin V2.1.3

[CTDB TOCID: yWc.Fqr0rSrh7MUmDQ4JttAQL38-] found, Submit result: yWc.Fqr0rSrh7MUmDQ4JttAQL38- has been confirmed
ec314330 Accurately ripped

==== Log checksum 169E0BD5AA243A44FA65FA8DB324C7CCF4ABBE909DBABFA088A622B0E7F4FEF7 ==== `

Содержание индексной карты (.CUE) 2

REM GENRE Jazz REM DATE 2012 REM DISCID 4A0A3C05 REM COMMENT "ExactAudioCopy v1.0b3" PERFORMER "Garbarek, Gismonti, Haden" TITLE "Magico - Carta de Amor - CD 2" FILE "01 - Branquinho.wav" WAVE TRACK 01 AUDIO TITLE "Branquinho" PERFORMER "Garbarek, Gismonti, Haden" INDEX 01 00:00:00 FILE "02 - All That Is Beautiful.wav" WAVE TRACK 02 AUDIO TITLE "All That Is Beautiful" PERFORMER "Garbarek, Gismonti, Haden" INDEX 01 00:00:00 FILE "03 - Palhaco.wav" WAVE TRACK 03 AUDIO TITLE "Palhaco" PERFORMER "Garbarek, Gismonti, Haden" INDEX 01 00:00:00 FILE "04 - Two Folk Songs.wav" WAVE TRACK 04 AUDIO TITLE "Two Folk Songs" PERFORMER "Garbarek, Gismonti, Haden" INDEX 01 00:00:00 FILE "05 - Carta de Amor - var.wav" WAVE TRACK 05 AUDIO TITLE "Carta de Amor - var" PERFORMER "Garbarek, Gismonti, Haden" INDEX 01 00:00:00

Об альбоме (сборнике)

A fascinating set from three strong and contrasting musical personalities: Norwegian saxophonist, Brazilian guitarist-pianist, and US bassist making purposeful and creative music together on this previously unreleased live recording. “Carta de Amor” documents music captured at Munich’s Amerika Haus in April, 1981. Two years on from the much-loved albums “Magico” (ECM 1151) and “Folk Songs” (ECM 1170), the trio’s improvisational empathy and sensibilities were further honed by experiences as a touring group. Repertoire includes five pieces from Gismonti’s pen, with the src track heard in two variations, opening and closing this enthralling double album. Also heard here are Garbarek’s folk song arrangements and an extended, freewheeling version of his composition “Spor”. Charlie Haden brings in “La Pasionaria”, from the repertoire of the Liberation Music Orchestra and “All That Is Beautiful”, not previously documented on disc. Recorded by Manfred Eicher and Martin Wieland in 1981, mixed from original analog tapes by Eicher and Jan Erik Kongshaug.


image

Jan Garbarek - дискография

ecm player


More at ibit.to
And ibit.uno
And ibit.am
And ibit.ws

Comments

8 years ago

картинка из буклета

8 years ago

Andorpat удивлен отсутствию комментов пластинка сумасшедшая

8 years ago

Скачаю, послушаю – отпишусь! Предвкушаю...

8 years ago

deepofrain, спасибо огромное! Это так нужно было этим вечером. Мёд в уши. Совершенно магический концерт!

6 years ago

Изначально услышал на тестовом диске, потом решил послушать все что есть, нашел это Shankar, Jan Garbarek, Zakir Hussain & Trilok Gurtu - Song For Everyone. И все заболел, вторую неделю кручю и не могу насладиться, мощно чисто красиво качественно, просто супер. Вот такую музыку в массы! Нашел еще это буду качать, надеюсь не разочарует, музыка просто класс! Что еще есть у них или можно еще послушать такого плана. Watching You эта вообще мне башню сорвала, насколько я люблю качественную музыку, но такого я еще не слышал, даже на моем допотопном Hi-End (ноут+KOSS Porta Pro+AIMP+Hear)

6 years ago

Чумовая пластинка! услышал впервые на русской службе радио ББС передача о джазе в конце 80-х.

Files

Artinlay 1.jpg 12 MB
CD 2folder.jpg 1.1 MB
CD 106 - Spor.flac 67 MB
Artbooklet.pdf 56 MB
CD 202 - All That Is Beautiful.flac 66 MB
CD 2Magico - Carta de Amor - CD 2.cue 914 B
Artdisc 2.jpg 6.0 MB
CD 1folder.jpg 1.1 MB
CD 102 - La Pasionaria.flac 72 MB
Artsleeve 2.jpg 11 MB
CD 103 - Cego Aderaido.flac 46 MB
CD 2Garbarek, Gismonti, Haden - Magico - Carta de Amor - CD 2.m3u 131 B
Artsleeve 1.jpg 11 MB
Artdisc 1.jpg 5.9 MB
CD 201 - Branquinho.flac 35 MB
CD 205 - Carta de Amor - var.flac 34 MB
CD 204 - Two Folk Songs.flac 19 MB
CD 1Magico - Carta de Amor - CD 1.cue 1.0 kB
CD 2Garbarek, Gismonti, Haden - Magico - Carta de Amor - CD 2.log 7.8 kB
CD 104 - Folk Song.flac 37 MB
Artinlay 2.jpg 8.4 MB
CD 105 - Don Quixote.flac 34 MB
CD 203 - Palhaco.flac 43 MB
CD 101 - Carta de Amor.flac 32 MB
CD 1Garbarek, Gismonti, Haden - Magico - Carta de Amor - CD 1.m3u 135 B
CD 1Garbarek, Gismonti, Haden - Magico - Carta de Amor - CD 1.log 8.6 kB

Stream

Downloading Seeding Garbarek, Gismonti, Haden - Magico, Carta de Amor (2012)[FLAC]{ecm 2280-81} from to 0 peers.
of
0 b/s / ↗0 b/s