• 11
  • 3
  • done
Downloadondemand_video
  • Gambit.2012.1080p.ITA.ENG.H264.Bluray.XFM.mkv
  • 6.6 GB
  • xfmtorrent
  • Gambit 2012 1080p ITA ENG H264 Bluray XFM mkv
  • Italian
  • HD 1080p
54%

Gambit (2012)

  • Comedy Crime
  • An art curator decides to seek revenge on his abusive boss by conning him into buying a fake Monet, but his plan requires the help of an eccentric and unpredictable Texas rodeo queen.

    expand_more
    English

    Description

    .::TITOLO::.

    Gambit - Una truffa a regola d'arte

    image

    .:: DATI ::.

    Titolo originale Gambit

    Paese di produzione Stati Uniti d'America, Regno Unito

    Anno 2012

    Durata 89 min

    Rapporto 2,35:1

    Genere commedia

    Regia Michael Hoffman

    Soggetto Sidney Carroll

    Sceneggiatura Ethan e Joel Coen

    Produttore Mike Lobell, Rob Paris, Adam Ripp

    Produttore esecutivo Rizal Risjad, Philip Elway

    Casa di produzione Crime Scene Pictures, Michael Lobell Productions

    Distribuzione in italiano Medusa Film

    Fotografia Florian Ballhaus

    Montaggio Paul Tothill

    Musiche Rolfe Kent

    Scenografia Stuart Craig

    .:: TRAMA ::.

    Il curatore d'arte inglese Harry Deane escogita un elaborato piano per truffare il suo datore di lavoro, il ricco proprietario di un network televisivo internazionale e collezionista d'arte impressionista, Lionel Shabandar, facendogli acquistare un falso d'autore, un falso quadro di Claude Monet. Nella fantasia di Deane tutto va secondo i suoi piani senza nessun intoppo, ma nella realtà una serie infinita di imprevisti complicherà l'attuazione del piano fino quasi a farlo desistere. La difficoltà maggiore è senz'altro dover organizzare una truffa a regola d'arte essendo perennemente in bolletta...

    .:: SCREENSHOT ::.

    image image image image

    .:: AVINAPTIC ::.

    General

    Complete name                            : Gambit.2012.1080p.ITA.ENG.H264.Bluray.XFM.mkv

    Format                                   : Matroska

    Format version                           : Version 4

    File size                                : 6.63 GiB

    Duration                                 : 1 h 29 min

    Overall bit rate                         : 10.6 Mb/s

    Movie name                               : Gambit 2012 - 1080p - XFM

    Encoded date                             : UTC 2021-07-21 16:11:38

    Writing application                      : mkvmerge v55.0.0 ('Waiting For Space') 64-bit

    Writing library                          : libebml v1.4.2 + libmatroska v1.6.4

    Video

    ID                                       : 1

    Format                                   : AVC

    Format/Info                              : Advanced Video Codec

    Format profile                           : [email protected]

    Format settings                          : CABAC / 5 Ref Frames

    Format settings, CABAC                   : Yes

    Format settings, Reference frames        : 5 frames

    Codec ID                                 : V_MPEG4/ISO/AVC

    Duration                                 : 1 h 29 min

    Bit rate                                 : 9 017 kb/s

    Width                                    : 1 920 pixels

    Height                                   : 816 pixels

    Display aspect ratio                     : 2.35:1

    Frame rate mode                          : Constant

    Frame rate                               : 23.976 (23976/1000) FPS

    Original frame rate                      : 23.976 (24000/1001) FPS

    Color space                              : YUV

    Chroma subsampling                       : 4:2:0

    Bit depth                                : 8 bits

    Scan type                                : Progressive

    Bits/(Pixel*Frame)                       : 0.240

    Stream size                              : 5.61 GiB (85%)

    Title                                    : Gambit 2012 - 1080p - XFM

    Writing library                          : x264 core 130 r2273 b3065e6

    Encoding settings                        : cabac=1 / ref=5 / deblock=1:0:0 / analyse=0x3:0x113 / me=umh / subme=8 / psy=1 / psyrd=1.00:0.00 / mixedref=1 / merange=16 / chromame=1 / trellis=1 / 8x8dct=1 / cqm=0 / deadzone=21,11 / fastpskip=1 / chromaqpoffset=-2 / threads=12 / lookaheadthreads=2 / slicedthreads=0 / nr=0 / decimate=1 / interlaced=0 / bluraycompat=0 / constrainedintra=0 / bframes=3 / bpyramid=2 / badapt=2 / bbias=0 / direct=3 / weightb=1 / opengop=0 / weightp=2 / keyint=240 / keyintmin=24 / scenecut=40 / intrarefresh=0 / rclookahead=50 / rc=2pass / mbtree=1 / bitrate=9017 / ratetol=1.0 / qcomp=0.60 / qpmin=0 / qpmax=69 / qpstep=4 / cplxblur=20.0 / qblur=0.5 / ip_ratio=1.40 / aq=1:1.00

    Language                                 : English

    Default                                  : Yes

    Forced                                   : No

    Audio #1

    ID                                       : 2

    Format                                   : DTS

    Format/Info                              : Digital Theater Systems

    Codec ID                                 : A_DTS

    Duration                                 : 1 h 29 min

    Bit rate mode                            : Constant

    Bit rate                                 : 1 509 kb/s

    Channel(s)                               : 6 channels

    Channel layout                           : C L R Ls Rs LFE

    Sampling rate                            : 48.0 kHz

    Frame rate                               : 93.750 FPS (512 SPF)

    Bit depth                                : 24 bits

    Compression mode                         : Lossy

    Stream size                              : 962 MiB (14%)

    Title                                    : Eng DTS by XFM

    Language                                 : English

    Default                                  : No

    Forced                                   : No

    Audio #2

    ID                                       : 3

    Format                                   : AAC LC

    Format/Info                              : Advanced Audio Codec Low Complexity

    Codec ID                                 : A_AAC-2

    Duration                                 : 1 h 29 min

    Bit rate                                 : 128 kb/s

    Channel(s)                               : 2 channels

    Channel layout                           : L R

    Sampling rate                            : 44.1 kHz

    Frame rate                               : 43.066 FPS (1024 SPF)

    Compression mode                         : Lossy

    Stream size                              : 81.7 MiB (1%)

    Title                                    : Ita by XFM

    Language                                 : Italian

    Default                                  : Yes

    Forced                                   : No

    Text #1

    ID                                       : 4

    Format                                   : UTF-8

    Codec ID                                 : S_TEXT/UTF8

    Codec ID/Info                            : UTF-8 Plain Text

    Duration                                 : 1 h 19 min

    Bit rate                                 : 75 b/s

    Count of elements                        : 918

    Stream size                              : 44.3 KiB (0%)

    Title                                    : Ita by XFM

    Language                                 : Italian

    Default                                  : Yes

    Forced                                   : No

    Text #2

    ID                                       : 5

    Format                                   : UTF-8

    Codec ID                                 : S_TEXT/UTF8

    Codec ID/Info                            : UTF-8 Plain Text

    Duration                                 : 1 h 21 min

    Bit rate                                 : 80 b/s

    Count of elements                        : 1190

    Stream size                              : 48.3 KiB (0%)

    Title                                    : Eng by XFM

    Language                                 : English

    Default                                  : No

    Forced                                   : No

    Menu

    00:00:00.000                             : en:00:00:00.000

    00:06:52.162                             : en:00:06:52.162

    00:14:35.291                             : en:00:14:35.291

    00:21:59.860                             : en:00:21:59.860

    00:30:34.791                             : en:00:30:34.791

    00:36:29.062                             : en:00:36:29.062

    00:44:29.000                             : en:00:44:29.000

    00:52:37.738                             : en:00:52:37.738

    01:02:10.018                             : en:01:02:10.018

    01:11:15.938                             : en:01:11:15.938

    01:18:32.166                             : en:01:18:32.166

    01:23:34.009                             : en:01:23:34.009

    .:: STATS TORRENT ::.

    image


    More at ibit.to
    And ibit.uno
    And ibit.am
    And ibit.ws

    Reviews

    I came to this because of the Coen brothers credit. It's an anomaly in their filmography — one of only two feature-length films they wrote but didn't direct, and the first since 1985. Sure, the poster makes the film look a lot less art-house-ready than the last film of theirs I saw, but I've enjoyed a Coen brothers farce before. Maybe the reason it hasn't made it stateside is because it's a misunderstood oddball. Turns out, no, it's pretty easy to understand. It's a cheaply-felt farce, replete with broad stereotypes sporting funny-sounding accents and the usual game of misunderstandings, several of which looking like they could quickly end if only certain characters decided to use peripheral vision. You wonder how different this film would have looked if the Coen's script hadn't reportedly been reworked or if they directed it instead. I did enjoy the idea that our conman hero initially paints his mark as a cartoonish and sour individual. But when we meet him in a more objective gaze, he seems much more rational, though clearly impatient with his employee. There's an intriguing antihero-versus-antihero story in that. I wish the film had further explored that idea.

    Based on glancing at a lot of reviews of this movie, I was expecting to see a hot mess of a film. But I like Colin Firth, Tom Courtney and a few other featured actors, so I gave it a try. I enjoyed it, start to finish. Go figure. Not sure what the hate was all about: purists about Coen and Coen films (they wrote this but didn’t direct it), affection for the original version which I haven’t seen, or whatever. It is no masterpiece but it entertains. There, I said it. There was a plot gap here and there, but I was watching this for fun, nothing else. That is what I found.

    Comments

    Files

    Gambit.2012.1080p.ITA.ENG.H264.Bluray.XFM.mkv 6.6 GB

    Stream

    Downloading Seeding Gambit.2012.1080p.ITA.ENG.H264.Bluray.XFM.mkv from to 0 peers.
    of
    0 b/s / ↗0 b/s