• -
  • -
  • done
  • Futurama.x265.1080p.RemasteredHQ
  • 12 GB
  • daniel breadly
  • Futurama x265 1080p RemasteredHQ
  • Разное (раздачи)

Description

Футурама / Futurama

(Volume 1-2 / Тома 1-2)

с комментариями создателей и дополнительными материалами

image

image

 

 

Страна : США

Жанр : Фантастика, комедия, драма

Продолжительность : 00:22:34 / серия

Год выпуска : 1999-2000

Переводы :

  1. Профессиональный (многоголосый закадровый) [Гемини-Фильм]

//1-9 серии I-го тома

  1. Профессиональный (многоголосый закадровый) [Ren-TV]

  2. Любительский (многоголосый закадровый) [VGM Studio]

//1 серия I-го тома

  1. Одноголосый (закадровый) [Михаил Яроцкий (kyberpunk)]

//1-13 серии I-го тома, 1-14 серии II тома

Русские субтитры : есть

Режиссёр : Мэтт Грейнинг / Matt Groening

Роли озвучивали : Билли Уэст, Кэти Сагал, Джон ДиМаджио, Тресс МакНилл, Морис ЛаМарш, Фил ЛаМарр, Лоурен Том, Дэвид Херман, Фрэнк Уэлкер, Бирн Оффатт, Кэт Сауси, Доун Льюис.

Описание : Сериал начинается с того, что разносчик пиццы из Нью-Йорка Филип Дж. Фрай [Philip J. Fry] случайно (подробности этого события раскроются в 10 эпизоде 4-го сезона «Загадка Фрая» [The Why of Fry]) был заморожен в криогенной камере ровно в 00 часов 00 минут 00 секунд 1 января 2000 года и разморожен 1000 лет (365242,5 суток) спустя — 31 декабря 2999 года. Фрай оказывается в далёком будущем в городе Новый Нью-Йорк [New New York].
В большинстве серий действие сериала происходит в Новом Нью-Йорке в XXXI веке. Использование будущего времени позволило авторам шоу вносить в него идеи и события из популярной фантастики XX века.
Сериал показывает приключения Фрая, Лилы, робота Бендера и многих других персонажей, раскрывающие не только тему мира будущего, но и личности героев сериала.  

 


imageimageimage


Список серий

Том 1:

1ACV01 «Space Pilot 3000» (Космический пилот 3000)
1ACV02 «The Series Has Landed» (Сериал приземлился)
1ACV03 «I, Roommate» (Я, сосед)
1ACV04 «Love’s Labours Lost in Space» (Рабы любви, затерянные в космосе)
1ACV05 «Fear of a Bot Planet» (Страх планеты роботов)
1ACV06 «A Fishful of Dollars» (Пригоршня долларов)
1ACV07 «My Three Suns» (Мои три солнца)
1ACV08 «A Big Piece of Garbage» (Большой кусок мусора)
1ACV09 «Hell Is Other Robots» (Ад — это другие роботы)
1ACV10 «A Flight to Remember» (Незабываемый полёт)
1ACV11 «Mars University» (Марсианский университет)
1ACV12 «When Aliens Attack» (Когда пришельцы атакуют)
1ACV13 «Fry and the Slurm Factory» (Фрай и фабрика «Слёрма»)

Том 2:

2ACV01 «I Second That Emotion» (Я повторяю эту эмоцию)
2ACV02 «Brannigan, Begin Again» (Бренниган, начни с начала)
2ACV03 «A Head in the Polls» (Голова на выборах)
2ACV04 «Xmas Story» (Рождественская история)
2ACV05 «Why Must I Be a Crustacean in Love?» (Зачем мне быть влюблённым крабом?)
2ACV06 «The Lesser of Two Evils» (Меньшее из двух зол)
2ACV07 «Put Your Head on My Shoulder» (Положи свою голову мне на плечо)
2ACV08 «Raging Bender» (Бешеный Бендер)
2ACV09 «A Bicyclops Built for Two» (Циклопов должно быть двое)
2ACV10 «A Clone of My Own» (Мой собственный клон)
2ACV11 «How Hermes Requisitioned His Groove Back» (Как Гермес конфисковал назад любимую рутину)
2ACV12 «The Deep South» (Глубокий Юг)
2ACV13 «Bender Gets Made» (Бендер входит в дело)
2ACV14 «Mother’s Day» (День Матери)
2ACV15 «The Problem with Popplers» (Проблема с попплерами)
2ACV16 «Anthology of Interest I» (Антология Интересов I)
2ACV17 «War Is the H-Word» (Война — адское слово)
2ACV18 «The Honking» (Гудок)
2ACV19 «The Cryonic Woman» (Отмороженная женщина)

Основные персонажи

Действие мультфильма «Футурама» сосредоточено вокруг семи персонажей, работающих в компании по доставке грузов «Межпланетный экспресс». А основные персонажи «Футурамы» соответствуют ряду основных персонажей Комедия дель арте.

Филип Джей Фрай

image

Фи́лип Джей Фрай (англ. Philip J. Fry, родился 9 августа 1974 года), или просто Фрай — главный герой мультсериала Футурама, неудачник и бездельник.
Он озвучен Билли Вестом в оригинальной версии. Фрай — парень из XX века, работавший разносчиком пиццы, проснувшийся в XXX веке после того,
как случайно попал в криогенную камеру и был заморожен в канун нового, 2000 года. В сериале упоминается возраст 25 лет.
Имя Филип было дано Фраю Мэттом Грейнингом в память о Филе Хартмане, который был отобран для озвучивания сериала, но погиб ещё до начала работы.

Бендер Сгибальщик Родригес

image

Бендер Сгибальщик Родригес (англ. Bender Bending Rodriguez — дословно «Сгибальщик Сгибающий Родригес», родился (произведён) 4 сентября 2996 года).
Модель — Сгибающий модуль 22, серийный номер 2716057 — герой мультсериала «Футурама», робот-сгибальщик.
Бендер — комический антигерой, сквернослов, алкоголик, заядлый курильщик сигар, почитатель порнографии для роботов (в виде электрических схем),
клептоман, повар (его еда в большинстве случаев по меньшей мере несъедобна, часто опасна для жизни).
В критической ситуации зачастую единственный, кто впадает в панику. В серии Benderama он был полным лентяем.
Обычно Бендер ведёт себя как законченный эгоист, циник, мизантроп, однако изредка в нём просыпается сочувствие
(например, к черепахе в эпизоде «Crimes of the Hot») и дружеская привязанность к Фраю.
В некоторых эпизодах Футурамы Бендер является главным действующим лицом.

Туранга Лила

image

Тура́нга Ли́ла (англ. Turanga Leela, родилась 29 июля 2975 года), чаще просто Лила — основной женский персонаж мультсериала «Футурама».
Является мутантом, но имеет минимальные физические отклонения, которые сводятся к циклопии — одному глазу вместо двух.
Это решительная, спортивная, привлекательная девушка, капитан и пилот космического корабля курьерской фирмы «Planet Express».
Своё имя она получила от наиболее известной оркестровой работы французского композитора Оливье Мессиана — «Турангалила-симфония».
Само название «Турангалила», имеющее санскритское происхождение, можно перевести как «песнь любви». По мнению Нила Геймана, она получила имя от Лилы из сериала «Доктор Кто».

Хьюберт Дж. Фарнсворт

image

Хьюберт Дж. Фарнсворт (англ. Hubert J. Farnsworth, родился 9 апреля 2841 года) — персонаж мультсериала «Футурама».
Профессор, старейший член Академии Изобретателей, владелец и основатель компании Planet Express.
В сериале является праплемянником и правнуком Фрая. Имеет клона по имени Кьюберт Фарнсворт, который фактически является также родственником.

Доктор Джон Зойдберг

image

Доктор Джон Зойдберг (англ. Doctor John Zoidberg, родился 5 августа 2914 года), известный также как Доктор Зойдберг, или просто Зойдберг — человеко-омароподобный инопланетянин с планеты Декапод-10.
Он работает врачом в компании Planet Express, хотя следует признать, что он очень мало знает об анатомии и физиологии человека и, тем более, о методах лечения, часто путая людей с роботами и ракообразными.
Докторскую же степень по «убийствоведению и убийствоводству» он получил по почте. В серии The Duh-Vinci Code показывает, что хорошо разбирается в искусстве и с гордостью объявляет, что он доктор искусствоведения.

Гермес Конрад

image Гермес Конрад (англ. Hermes Conrad, родился 15 июля 2959 года) — бухгалтер Межпланетного Экспресса, родом из Ямайки. Он является бюрократом 36-ого уровня (в ходе сериала разжалован до 37-ого уровня) и гордится этим, он сторонник упорядоченности во всём и обожает заниматься скучной бумажной работой бюрократа. Также Гермес является бывшим чемпионом Олимпийского Лимбо — спорта, образованного от популярного развлечения. Он покинул этот спорт после 2980-го года, когда один молодой фанат, подражая ему, сломал свой позвоночник и погиб. У Гермеса есть жена, ЛаБарбара, и 12-тилетний сын, Дуайт.

Эми Вонг

image Эми Вонг (англ. Amy Wong, родилась 4 августа 2980 года) — одна из главных героев мультсериала «Футурама». Училась в Марсианском Университете вплоть до серии «That Darn Katz!» (где она получает докторскую степень в области прикладной физики) и подрабатывает стажёром в Межпланетном Экспрессе (профессор Фарнсворт держит её в штате, так как у них одна группа крови).


Remastered HQ 1080p by HappyLee


Выражаю благодарность HelShowBoi за предоставленные ссылки на видеоряд в Full HD качестве.

Озвучка от Ren-TV взята из раздачи reeldeel.
Озвучка от Гемини-Фильм взята из раздачи manhunt clon.
Озвучка от VGM Studio взята из раздачи Mertonys.
Озвучка от студии Пилот взята из раздачи Kibernetik91.

Выражаю им благодарность за предоставленный звук, reeldeel в особенности за подогнанные дорожки, manhunt clon в особенности за редкий перевод.


Ссылка на предыдущие и альтернативные раздачи : Futurama

Семпл : multi-up, sendspace, multi-up, sendspace

Качество : HDRip 1080p

Формат : MKV

Видео : HEVC, 1440x1080 (4:3), 23.976 fps, ~727.75 Kbps

Аудио 1 : AC-3, 48.0 KHz, 2 channels, 256 Kbps | Russian [Гемини-Фильм]

Аудио 2 : AC-3, 48.0 KHz, 2 channels, 192 Kbps | Russian [Ren-TV]

Аудио 3 : AC-3, 48.0 KHz, 2 channels, 320 Kbps | Russian [VGM Studio]

Аудио 4 : AC-3, 48.0 KHz, 2 channels, 224 Kbps | Russian [Михаил Яроцкий (kyberpunk)]

Аудио 5 : MP3,  48.0 KHz, 2 channels, 192 Kbps | Ukrainian [Пилот по заказу М1]

Аудио 6 : AC-3, 48.0 KHz, 2 channels, 192 Kbps | English [Original]

Аудио 7 : AC-3, 48.0 KHz, 2 channels, 192 Kbps | Spanish [Doblaje]

Аудио 8 : AC-3, 48.0 KHz, 2 channels, 192 Kbps | French [Doublage]

Аудио 9 : AC-3, 48.0 KHz, 2 channels, 192 Kbps | English [Comments]

Субтитры : Русские (UTF-8), Английские (UTF-8)


О раздаче:

Раздача ведётся путём добавления серий по следующему принципу:

если/когда HappyLee релизнет-выложит свой full hd remaster на недостающие здесь сезоны, то/тогда они появятся в этой раздаче.


Всем:

если у вас есть вопросы и замечания , как по поводу раздачи, её ведения, переводов, субтитров и т. п., так и без повода, то высказывайте их , пожалуйста, мне в личных сообщениях .


Подробные технические данные

``

1ACV01 «Space Pilot 3000» (Космический пилот 3000)

General
Unique ID : 44596995225255541913662562487072449020 (0x218D11A06063546027B08CABCE37E1FC)
Complete name : C:razdFuturama.x265.1080p.RemasteredHQFuturama.S01.x265.1080p.RemasteredHQ1ACV01 «Space Pilot 3000» (Космический пилот 3000) [1080p].mkv
Format : Matroska
Format version : Version 4
File size : 425 MiB
Duration : 23 min 19 s
Overall bit rate : 2 548 kb/s
Movie name : 1ACV01 «Space Pilot 3000»
Encoded date : UTC 2020-01-09 14:12:07
Writing application : mkvmerge v32.0.0 ('Astral Progressions') 64-bit
Writing library : libebml v1.3.7 + libmatroska v1.5.0

Video
ID : 1
Format : HEVC
Format/Info : High Efficiency Video Coding
Format profile : [email protected]@Main
Codec ID : V_MPEGH/ISO/HEVC
Duration : 23 min 19 s
Bit rate : 640 kb/s
Width : 1 440 pixels
Height : 1 080 pixels
Display aspect ratio : 4:3
Frame rate mode : Constant
Frame rate : 23.976 (24000/1001) FPS
Color space : YUV
Chroma subsampling : 4:2:0
Bit depth : 8 bits
Bits/(Pixel*Frame) : 0.017
Stream size : 107 MiB (25%)
Title : «Space Pilot 3000»
Writing library : x265 2.9+1-169e76b6bbcc:[Windows][GCC 8.2.0][64 bit] 8bit+10bit+12bit
Encoding settings : cpuid=1111039 / frame-threads=2 / numa-pools=4 / wpp / no-pmode / no-pme / no-psnr / no-ssim / log-level=2 / input-csp=1 / input-res=1440x1080 / interlace=0 / total-frames=33544 / level-idc=0 / high-tier=1 / uhd-bd=0 / ref=5 / no-allow-non-conformance / no-repeat-headers / annexb / no-aud / no-hrd / info / hash=0 / no-temporal-layers / open-gop / min-keyint=1 / keyint=250 / gop-lookahead=0 / bframes=8 / b-adapt=2 / b-pyramid / bframe-bias=0 / rc-lookahead=40 / lookahead-slices=0 / scenecut=40 / radl=0 / no-intra-refresh / ctu=32 / min-cu-size=8 / rect / amp / max-tu-size=32 / tu-inter-depth=3 / tu-intra-depth=3 / limit-tu=4 / rdoq-level=2 / dynamic-rd=0.00 / no-ssim-rd / signhide / no-tskip / nr-intra=0 / nr-inter=0 / no-constrained-intra / strong-intra-smoothing / max-merge=4 / limit-refs=1 / limit-modes / me=3 / subme=4 / merange=57 / temporal-mvp / weightp / weightb / no-analyze-src-pics / deblock=0:0 / sao / no-sao-non-deblock / rd=6 / no-early-skip / rskip / no-fast-intra / no-tskip-fast / no-cu-lossless / b-intra / no-splitrd-skip / rdpenalty=0 / psy-rd=1.00 / psy-rdoq=1.00 / no-rd-refine / no-lossless / cbqpoffs=0 / crqpoffs=0 / rc=crf / crf=24.0 / qcomp=0.60 / qpstep=4 / stats-write=0 / stats-read=0 / ipratio=1.40 / pbratio=1.30 / aq-mode=1 / aq-strength=1.00 / cutree / zone-count=0 / no-strict-cbr / qg-size=32 / no-rc-grain / qpmax=69 / qpmin=0 / no-const-vbv / sar=0 / overscan=0 / videoformat=5 / range=0 / colorprim=2 / transfer=2 / colormatrix=2 / chromaloc=0 / display-window=0 / max-cll=0,0 / min-luma=0 / max-luma=255 / log2-max-poc-lsb=8 / vui-timing-info / vui-hrd-info / slices=1 / no-opt-qp-pps / no-opt-ref-list-length-pps / no-multi-pass-opt-rps / scenecut-bias=0.05 / no-opt-cu-delta-qp / no-aq-motion / no-hdr / no-hdr-opt / no-dhdr10-opt / no-idr-recovery-sei / analysis-reuse-level=5 / scale-factor=0 / refine-intra=0 / refine-inter=0 / refine-mv=0 / no-limit-sao / ctu-info=0 / no-lowpass-dct / refine-mv-type=0 / copy-pic=1 / max-ausize-factor=1.0 / no-dynamic-refine / no-single-sei
Default : Yes
Forced : No

Audio #1
ID : 2
Format : AC-3
Format/Info : Audio Coding 3
Commercial name : Dolby Digital
Codec ID : A_AC3
Duration : 22 min 31 s
Bit rate mode : Constant
Bit rate : 256 kb/s
Channel(s) : 2 channels
Channel layout : L R
Sampling rate : 48.0 kHz
Frame rate : 31.250 FPS (1536 SPF)
Bit depth : 16 bits
Compression mode : Lossy
Stream size : 41.2 MiB (10%)
Title : Многоголосый закадровый [Гемини-Фильм]
Language : Russian
Service kind : Complete Main
Default : Yes
Forced : No

Audio #2
ID : 3
Format : AC-3
Format/Info : Audio Coding 3
Commercial name : Dolby Digital
Codec ID : A_AC3
Duration : 22 min 39 s
Bit rate mode : Constant
Bit rate : 192 kb/s
Channel(s) : 2 channels
Channel layout : L R
Sampling rate : 48.0 kHz
Frame rate : 31.250 FPS (1536 SPF)
Bit depth : 16 bits
Compression mode : Lossy
Stream size : 31.1 MiB (7%)
Title : Многоголосый закадровый [Ren-TV]
Language : Russian
Service kind : Complete Main
Default : No
Forced : No

Audio #3
ID : 4
Format : AC-3
Format/Info : Audio Coding 3
Commercial name : Dolby Digital
Codec ID : A_AC3
Duration : 22 min 33 s
Bit rate mode : Constant
Bit rate : 320 kb/s
Channel(s) : 2 channels
Channel layout : L R
Sampling rate : 48.0 kHz
Frame rate : 31.250 FPS (1536 SPF)
Bit depth : 16 bits
Compression mode : Lossy
Stream size : 51.6 MiB (12%)
Title : Многоголосый закадровый [VGM Studio]
Language : Russian
Service kind : Complete Main
Default : No
Forced : No

Audio #4
ID : 5
Format : AC-3
Format/Info : Audio Coding 3
Commercial name : Dolby Digital
Codec ID : A_AC3
Duration : 22 min 44 s
Bit rate mode : Constant
Bit rate : 224 kb/s
Channel(s) : 2 channels
Channel layout : L R
Sampling rate : 48.0 kHz
Frame rate : 31.250 FPS (1536 SPF)
Bit depth : 16 bits
Compression mode : Lossy
Stream size : 36.4 MiB (9%)
Title : Одноголосый закадровый [Михаил Яроцкий (kyberpunk)]
Language : Russian
Service kind : Complete Main
Default : No
Forced : No

Audio #5
ID : 6
Format : MPEG Audio
Format version : Version 1
Format profile : Layer 3
Codec ID : A_MPEG/L3
Codec ID/Hint : MP3
Duration : 22 min 45 s
Bit rate mode : Constant
Bit rate : 192 kb/s
Channel(s) : 2 channels
Sampling rate : 44.1 kHz
Frame rate : 38.281 FPS (1152 SPF)
Compression mode : Lossy
Stream size : 31.2 MiB (7%)
Title : Дублированный [Пилот по заказу М1]
Language : Ukrainian
Default : No
Forced : No

Audio #6
ID : 7
Format : AC-3
Format/Info : Audio Coding 3
Commercial name : Dolby Digital
Codec ID : A_AC3
Duration : 22 min 44 s
Bit rate mode : Constant
Bit rate : 192 kb/s
Channel(s) : 2 channels
Channel layout : L R
Sampling rate : 48.0 kHz
Frame rate : 31.250 FPS (1536 SPF)
Bit depth : 16 bits
Compression mode : Lossy
Stream size : 31.2 MiB (7%)
Title : Original
Language : English
Service kind : Complete Main
Default : No
Forced : No

Audio #7
ID : 8
Format : AC-3
Format/Info : Audio Coding 3
Commercial name : Dolby Digital
Codec ID : A_AC3
Duration : 22 min 39 s
Bit rate mode : Constant
Bit rate : 192 kb/s
Channel(s) : 2 channels
Channel layout : L R
Sampling rate : 48.0 kHz
Frame rate : 31.250 FPS (1536 SPF)
Bit depth : 16 bits
Compression mode : Lossy
Stream size : 31.1 MiB (7%)
Title : Doblaje
Language : Spanish
Service kind : Complete Main
Default : No
Forced : No

Audio #8
ID : 9
Format : AC-3
Format/Info : Audio Coding 3
Commercial name : Dolby Digital
Codec ID : A_AC3
Duration : 22 min 46 s
Bit rate mode : Constant
Bit rate : 192 kb/s
Channel(s) : 2 channels
Channel layout : L R
Sampling rate : 48.0 kHz
Frame rate : 31.250 FPS (1536 SPF)
Bit depth : 16 bits
Compression mode : Lossy
Stream size : 31.3 MiB (7%)
Title : Doublage
Language : French
Service kind : Complete Main
Default : No
Forced : No

Audio #9
ID : 10
Format : AC-3
Format/Info : Audio Coding 3
Commercial name : Dolby Digital
Codec ID : A_AC3
Duration : 23 min 19 s
Bit rate mode : Constant
Bit rate : 192 kb/s
Channel(s) : 2 channels
Channel layout : L R
Sampling rate : 48.0 kHz
Frame rate : 31.250 FPS (1536 SPF)
Bit depth : 16 bits
Compression mode : Lossy
Stream size : 32.0 MiB (8%)
Title : Directors comments
Language : English
Service kind : Complete Main
Default : No
Forced : No

Text #1
ID : 11
Format : UTF-8
Codec ID : S_TEXT/UTF8
Codec ID/Info : UTF-8 Plain Text
Duration : 21 min 48 s
Bit rate : 124 b/s
Count of elements : 271
Stream size : 19.9 KiB (0%)
Language : Russian
Default : No
Forced : No

Text #2
ID : 12
Format : UTF-8
Codec ID : S_TEXT/UTF8
Codec ID/Info : UTF-8 Plain Text
Duration : 21 min 38 s
Bit rate : 63 b/s
Count of elements : 395
Stream size : 10.1 KiB (0%)
Language : English
Default : No
Forced : No

Text #3
ID : 13
Format : UTF-8
Codec ID : S_TEXT/UTF8
Codec ID/Info : UTF-8 Plain Text
Duration : 21 min 39 s
Bit rate : 136 b/s
Count of elements : 435
Stream size : 21.7 KiB (0%)
Title : DVD
Language : English
Default : No
Forced : No

Text #4
ID : 14
Format : UTF-8
Codec ID : S_TEXT/UTF8
Codec ID/Info : UTF-8 Plain Text
Duration : 21 min 38 s
Bit rate : 70 b/s
Count of elements : 374
Stream size : 11.2 KiB (0%)
Language : French
Default : No
Forced : No

Menu
00:00:00.000 : en:Chapter 01
00:03:35.415 : en:Chapter 02
00:09:11.150 : en:Chapter 03
00:15:10.376 : en:Chapter 04
00:21:55.547 : en:Chapter 05

2ACV01 «I Second That Emotion» (Я повторяю эту эмоцию)

General
Unique ID : 222525491985862927585387597125315515208 (0xA768D9D0AEF9F27D0F222BBA5948D348)
Complete name : D:rutreckerrozdachiFuturamaFuturama.x265.1080p.RemasteredHQFuturama.S02.x265.1080p.RemasteredHQ2ACV01 «I Second That Emotion» (Я повторяю эту эмоцию) [1080p].mkv
Format : Matroska
Format version : Version 4
File size : 323 MiB
Duration : 22 min 32 s
Overall bit rate : 2 001 kb/s
Movie name : 2ACV01 «I Second That Emotion»
Encoded date : UTC 2019-11-12 08:36:59
Writing application : mkvmerge v32.0.0 ('Astral Progressions') 64-bit
Writing library : libebml v1.3.7 + libmatroska v1.5.0

Video
ID : 1
Format : HEVC
Format/Info : High Efficiency Video Coding
Format profile : [email protected]@Main
Codec ID : V_MPEGH/ISO/HEVC
Duration : 22 min 32 s
Bit rate : 717 kb/s
Width : 1 440 pixels
Height : 1 080 pixels
Display aspect ratio : 4:3
Frame rate mode : Constant
Frame rate : 23.976 (24000/1001) FPS
Color space : YUV
Chroma subsampling : 4:2:0
Bit depth : 8 bits
Bits/(Pixel*Frame) : 0.019
Stream size : 116 MiB (36%)
Title : «I Second That Emotion»
Writing library : x265 2.9+1-169e76b6bbcc:[Windows][GCC 8.2.0][64 bit] 8bit+10bit+12bit
Encoding settings : cpuid=1111039 / frame-threads=2 / numa-pools=4 / wpp / no-pmode / no-pme / no-psnr / no-ssim / log-level=2 / input-csp=1 / input-res=1440x1080 / interlace=0 / total-frames=32436 / level-idc=0 / high-tier=1 / uhd-bd=0 / ref=5 / no-allow-non-conformance / no-repeat-headers / annexb / no-aud / no-hrd / info / hash=0 / no-temporal-layers / open-gop / min-keyint=1 / keyint=250 / gop-lookahead=0 / bframes=8 / b-adapt=2 / b-pyramid / bframe-bias=0 / rc-lookahead=40 / lookahead-slices=0 / scenecut=40 / radl=0 / no-intra-refresh / ctu=32 / min-cu-size=8 / rect / amp / max-tu-size=32 / tu-inter-depth=3 / tu-intra-depth=3 / limit-tu=4 / rdoq-level=2 / dynamic-rd=0.00 / no-ssim-rd / signhide / no-tskip / nr-intra=0 / nr-inter=0 / no-constrained-intra / strong-intra-smoothing / max-merge=4 / limit-refs=1 / limit-modes / me=3 / subme=4 / merange=57 / temporal-mvp / weightp / weightb / no-analyze-src-pics / deblock=0:0 / sao / no-sao-non-deblock / rd=6 / no-early-skip / rskip / no-fast-intra / no-tskip-fast / no-cu-lossless / b-intra / no-splitrd-skip / rdpenalty=0 / psy-rd=1.00 / psy-rdoq=1.00 / no-rd-refine / no-lossless / cbqpoffs=0 / crqpoffs=0 / rc=crf / crf=24.0 / qcomp=0.60 / qpstep=4 / stats-write=0 / stats-read=0 / ipratio=1.40 / pbratio=1.30 / aq-mode=1 / aq-strength=1.00 / cutree / zone-count=0 / no-strict-cbr / qg-size=32 / no-rc-grain / qpmax=69 / qpmin=0 / no-const-vbv / sar=0 / overscan=0 / videoformat=5 / range=0 / colorprim=2 / transfer=2 / colormatrix=2 / chromaloc=0 / display-window=0 / max-cll=0,0 / min-luma=0 / max-luma=255 / log2-max-poc-lsb=8 / vui-timing-info / vui-hrd-info / slices=1 / no-opt-qp-pps / no-opt-ref-list-length-pps / no-multi-pass-opt-rps / scenecut-bias=0.05 / no-opt-cu-delta-qp / no-aq-motion / no-hdr / no-hdr-opt / no-dhdr10-opt / no-idr-recovery-sei / analysis-reuse-level=5 / scale-factor=0 / refine-intra=0 / refine-inter=0 / refine-mv=0 / no-limit-sao / ctu-info=0 / no-lowpass-dct / refine-mv-type=0 / copy-pic=1 / max-ausize-factor=1.0 / no-dynamic-refine / no-single-sei
Default : Yes
Forced : No

Audio #1
ID : 2
Format : AC-3
Format/Info : Audio Coding 3
Commercial name : Dolby Digital
Codec ID : A_AC3
Duration : 22 min 32 s
Bit rate mode : Constant
Bit rate : 192 kb/s
Channel(s) : 2 channels
Channel layout : L R
Sampling rate : 48.0 kHz
Frame rate : 31.250 FPS (1536 SPF)
Bit depth : 16 bits
Compression mode : Lossy
Stream size : 31.0 MiB (10%)
Title : Многоголосый закадровый [Ren-TV]
Language : Russian
Service kind : Complete Main
Default : Yes
Forced : No

Audio #2
ID : 3
Format : AC-3
Format/Info : Audio Coding 3
Commercial name : Dolby Digital
Codec ID : A_AC3
Duration : 22 min 32 s
Bit rate mode : Constant
Bit rate : 224 kb/s
Channel(s) : 2 channels
Channel layout : L R
Sampling rate : 48.0 kHz
Frame rate : 31.250 FPS (1536 SPF)
Bit depth : 16 bits
Compression mode : Lossy
Stream size : 36.1 MiB (11%)
Title : Одноголосый закадровый [Михаил Яроцкий (kyberpunk)]
Language : Russian
Service kind : Complete Main
Default : No
Forced : No

Audio #3
ID : 4
Format : MPEG Audio
Format version : Version 1
Format profile : Layer 3
Codec ID : A_MPEG/L3
Codec ID/Hint : MP3
Duration : 22 min 32 s
Bit rate mode : Constant
Bit rate : 192 kb/s
Channel(s) : 2 channels
Sampling rate : 48.0 kHz
Frame rate : 41.667 FPS (1152 SPF)
Compression mode : Lossy
Stream size : 31.0 MiB (10%)
Title : Дублированный [Пилот по заказу М1]
Language : Ukrainian
Default : No
Forced : No

Audio #4
ID : 5
Format : AC-3
Format/Info : Audio Coding 3
Commercial name : Dolby Digital
Codec ID : A_AC3
Duration : 22 min 32 s
Bit rate mode : Constant
Bit rate : 192 kb/s
Channel(s) : 2 channels
Channel layout : L R
Sampling rate : 48.0 kHz
Frame rate : 31.250 FPS (1536 SPF)
Bit depth : 16 bits
Compression mode : Lossy
Stream size : 31.0 MiB (10%)
Title : Original
Language : English
Service kind : Complete Main
Default : No
Forced : No

Audio #5
ID : 6
Format : AC-3
Format/Info : Audio Coding 3
Commercial name : Dolby Digital
Codec ID : A_AC3
Duration : 22 min 32 s
Bit rate mode : Constant
Bit rate : 192 kb/s
Channel(s) : 2 channels
Channel layout : L R
Sampling rate : 48.0 kHz
Frame rate : 31.250 FPS (1536 SPF)
Bit depth : 16 bits
Compression mode : Lossy
Stream size : 31.0 MiB (10%)
Title : Doblaje
Language : Spanish
Service kind : Complete Main
Default : No
Forced : No

Audio #6
ID : 7
Format : AC-3
Format/Info : Audio Coding 3
Commercial name : Dolby Digital
Codec ID : A_AC3
Duration : 22 min 32 s
Bit rate mode : Constant
Bit rate : 192 kb/s
Channel(s) : 2 channels
Channel layout : L R
Sampling rate : 48.0 kHz
Frame rate : 31.250 FPS (1536 SPF)
Bit depth : 16 bits
Compression mode : Lossy
Stream size : 31.0 MiB (10%)
Title : Doublage
Language : French
Service kind : Complete Main
Default : No
Forced : No

Audio #7
ID : 8
Format : AC-3
Format/Info : Audio Coding 3
Commercial name : Dolby Digital
Codec ID : A_AC3
Duration : 22 min 32 s
Bit rate mode : Constant
Bit rate : 96.0 kb/s
Channel(s) : 2 channels
Channel layout : L R
Sampling rate : 48.0 kHz
Frame rate : 31.250 FPS (1536 SPF)
Bit depth : 16 bits
Compression mode : Lossy
Stream size : 15.5 MiB (5%)
Title : Directors comments
Language : English
Service kind : Complete Main
Default : No
Forced : No

Text #1
ID : 9
Format : UTF-8
Codec ID : S_TEXT/UTF8
Codec ID/Info : UTF-8 Plain Text
Duration : 22 min 3 s
Bit rate : 132 b/s
Count of elements : 289
Stream size : 21.4 KiB (0%)
Language : Russian
Default : No
Forced : No

Text #2
ID : 10
Format : UTF-8
Codec ID : S_TEXT/UTF8
Codec ID/Info : UTF-8 Plain Text
Duration : 21 min 49 s
Bit rate : 75 b/s
Count of elements : 446
Stream size : 12.1 KiB (0%)
Language : English
Default : No
Forced : No

Text #3
ID : 11
Format : UTF-8
Codec ID : S_TEXT/UTF8
Codec ID/Info : UTF-8 Plain Text
Duration : 21 min 48 s
Bit rate : 165 b/s
Count of elements : 542
Stream size : 26.4 KiB (0%)
Title : DVD
Language : English
Default : No
Forced : No

Text #4
ID : 12
Format : UTF-8
Codec ID : S_TEXT/UTF8
Codec ID/Info : UTF-8 Plain Text
Duration : 22 min 28 s
Bit rate : 70 b/s
Count of elements : 287
Stream size : 11.7 KiB (0%)
Language : French
Default : No
Forced : No

Menu
00:00:00.000 : en:Chapter 01
00:00:39.406 : en:Chapter 02
00:06:44.237 : en:Chapter 03
00:14:48.888 : en:Chapter 04
00:21:54.479 : en:Chapter 05

Скриншоты

imageimage image image image


NTSC DVD Remux
Volume 1-4 / Тома 1-4

image image image image


Space. It seems to go on (and on) forever. But then you get to the end and the gorilla starts throwin' barrels at you.


More at ibit.to
And ibit.uno
And ibit.am
And ibit.ws

Comments

2 months ago

С возвращением!

2 months ago

Эх были времена ...=(

2 months ago

Везде люди как люди, только в рунете одни копрофаги. В первых двух сезонах было не 32, а 29 (9+20) эпизодов. Если Вам лень было лезть на IMDB, разбираться, вникать, так бы и писали в теме - DVD Volume 1-2. Это не сезоны.

2 months ago

lost_heroНаписано же, "Том 1", "Том 2". Откройте глаза. А в заголовке пишется "сезон" в любом случае, так как заголовок ориентирован на поиск по трекеру и составляется в соответствии с правилами трекера.И оскорблениями вы себе ума не прибавите.

2 months ago

Daniel Breadly, вот именно, что человек ищет сезоны, а получает тома. False advertisement.

2 months ago

lost_hero Тогда проходите мимо и "ищите сезоны" дальше. На канале FOX, видимо. В начале двухтысячных, видимо.Если человек "ищет сезоны", то здесь он найдёт и эти самые "сезоны", и ещё +3 серии. А к моменту пополнения раздачи остальными двумя томами, различие производственной и телевизионной трактовки и вовсе не будет иметь значения.Так что любой получит то, что ищет, так как первые два тома включают в себя первые два сезона. И поэтому всё ваше хамство — пустое, ваши оскорбления — пустое, ваши обвинения в "ложной рекламе" / "ложном объявлении", выражаясь вашим руглишом, — total misuse of a term, а окромя негатива ваши слова и вовсе никому ничего не приносят.So stop bein' a d*ck n enjoy the series 'fore u make a totally complete moron of yourself. Your progress now stands at 80% so don't push it, Less than Hero. P. S. Всем:1. Просьба выражать свои мысли, используя только один язык на мысль, стараясь не смешивать различные языки. А по возможности вообще не прибегать к более, чем одному языку.2. И я понимаю, что с такими людьми нецелесообразно пытаться вести диалог, и что большинство адекватных, мыслящих людей так бы и поступили на моём месте. И поэтому, ради извлечения хоть какого-то блага из ситуации, прикреплю различия производственной и ТВ-нумерации, чтобы все, кому интересно, знали, о чём вообще речь:Производственная нумерация: Изначально предполагалось снять 72 серии, разбитых на 4 сезона. Каждой серии был присвоен номер (код серии, производственный номер) вида xACVyy, где x — номер производственного блока (так называемого Volume [рус. Том]), а yy — номер серии. ТВ-нумерация: При показе на FOX серии до второго сезона соответствовали производственным блокам, дальше шли в произвольном порядке, в результате чего получилось пять сезонов. В итоге «код показа» имеет вид S0xEyy, где x — номер сезона для показа, а yy — номер серии. В производственной нумерации серии идут в том порядке, в котором они были созданы. Именно в такой последовательности, как правило, серии выпускаются на DVD (исключения составляют некоторые пиратские издания вида «Все серии Футурамы на одном диске»). Кроме этого, производственный порядок лучше отражает замысел создателей и помогает избежать потенциальных сценарных непоследовательностей и нестыковок в сюжетной линии. различия в нумерации серий Volume 1 / Том 1 Volume 2 / Том 2

1 month ago

конечно хорошо, НО откуда видеоряд ? тот человек сам делал рип с потока ? или что ? потому как в HD существует пока тока от хулу в 720р (1-5 сезоны), в 1080 нету вообще, интересно было бы понять ЗЫ кстати на хулу нумерация и даже серии в сезонах скачат, из сезона в сезон, что странно, сам уже на 4 сезоне, жаль что тока в HD

1 month ago

CEBEPu2D Очень похоже, что автор видеоряда конкретно поработал над исходным NTSC DVD, подбирая параметры деинтерлейса под конкретные фрагменты видео. И ему довольно хорошо удалось замаскировать косяки исходника, где от части кадров осталось только по одному полю. Было бы просто замечательно, если бы в погоне за модными цифрами зачем-то не был сделан апскейл, который не добавил ничего, кроме веса файлам. А так да, "полосатые рты" здесь глаз не режут.

1 month ago

episodes 1-3 of season 1 are slow, seed please

3 weeks ago

CEBEPu2D почему же? на хулу есть 1080p

3 weeks ago

Остальные части ожидаются?

Files

Futurama.x265.1080p.RemasteredHQFuturama.S01.x265.1080p.RemasteredHQ1ACV01 «Space Pilot 3000» (Космический пилот 3000) [1080p].mkv 446 MB
Futurama.x265.1080p.RemasteredHQFuturama.S01.x265.1080p.RemasteredHQ1ACV02 «The Series Has Landed» (Сериал приземлился) [1080p].mkv 408 MB
Futurama.x265.1080p.RemasteredHQFuturama.S01.x265.1080p.RemasteredHQ1ACV03 «I, Roommate» (Я, сосед) [1080p].mkv 391 MB
Futurama.x265.1080p.RemasteredHQFuturama.S01.x265.1080p.RemasteredHQ1ACV04 «Love’s Labours Lost in Space» (Рабы любви, затерянные в космосе) [1080p].m 390 MB
Futurama.x265.1080p.RemasteredHQFuturama.S01.x265.1080p.RemasteredHQ1ACV05 «Fear of a Bot Planet» (Страх планеты роботов) [1080p].mkv 385 MB
Futurama.x265.1080p.RemasteredHQFuturama.S01.x265.1080p.RemasteredHQ1ACV06 «A Fishful of Dollars» (Пригоршня долларов) [1080p].mkv 381 MB
Futurama.x265.1080p.RemasteredHQFuturama.S01.x265.1080p.RemasteredHQ1ACV07 «My Three Suns» (Мои три солнца) [1080p].mkv 409 MB
Futurama.x265.1080p.RemasteredHQFuturama.S01.x265.1080p.RemasteredHQ1ACV08 «A Big Piece of Garbage» (Большой кусок мусора) [1080p].mkv 388 MB
Futurama.x265.1080p.RemasteredHQFuturama.S01.x265.1080p.RemasteredHQ1ACV09 «Hell Is Other Robots» (Ад — это другие роботы) [1080p].mkv 405 MB
Futurama.x265.1080p.RemasteredHQFuturama.S01.x265.1080p.RemasteredHQ1ACV10 «A Flight to Remember» (Незабываемый полёт) [1080p].mkv 359 MB
Futurama.x265.1080p.RemasteredHQFuturama.S01.x265.1080p.RemasteredHQ1ACV11 «Mars University» (Марсианский университет) [1080p].mkv 353 MB
Futurama.x265.1080p.RemasteredHQFuturama.S01.x265.1080p.RemasteredHQ1ACV12 «When Aliens Attack» (Когда пришельцы атакуют) [1080p].mkv 355 MB
Futurama.x265.1080p.RemasteredHQFuturama.S01.x265.1080p.RemasteredHQ1ACV13 «Fry and the Slurm Factory» (Фрай и фабрика «Слёрма») [1080p].mkv 365 MB
Futurama.x265.1080p.RemasteredHQFuturama.S01.x265.1080p.RemasteredHQSpecial FeaturesSeason 1 Special Features — Deleted Scenes.mkv 23 MB
Futurama.x265.1080p.RemasteredHQFuturama.S02.x265.1080p.RemasteredHQ2ACV01 «I Second That Emotion» (Я повторяю эту эмоцию) [1080p].mkv 338 MB
Futurama.x265.1080p.RemasteredHQFuturama.S02.x265.1080p.RemasteredHQ2ACV02 «Brannigan, Begin Again» (Бренниган, начни с начала) [1080p].mkv 380 MB
Futurama.x265.1080p.RemasteredHQFuturama.S02.x265.1080p.RemasteredHQ2ACV03 «A Head in the Polls» (Голова на выборах) [1080p].mkv 318 MB
Futurama.x265.1080p.RemasteredHQFuturama.S02.x265.1080p.RemasteredHQ2ACV04 «Xmas Story» (Рождественская история) [1080p].mkv 386 MB
Futurama.x265.1080p.RemasteredHQFuturama.S02.x265.1080p.RemasteredHQ2ACV05 «Why Must I Be a Crustacean in Love» (Зачем мне быть влюблённым крабом) [10 373 MB
Futurama.x265.1080p.RemasteredHQFuturama.S02.x265.1080p.RemasteredHQ2ACV06 «The Lesser of Two Evils» (Меньшее из двух зол) [1080p].mkv 324 MB
Futurama.x265.1080p.RemasteredHQFuturama.S02.x265.1080p.RemasteredHQ2ACV07 «Put Your Head on My Shoulder» (Положи свою голову мне на плечо) [1080p].mk 318 MB
Futurama.x265.1080p.RemasteredHQFuturama.S02.x265.1080p.RemasteredHQ2ACV08 «Raging Bender» (Бешеный Бендер) [1080p].mkv 350 MB
Futurama.x265.1080p.RemasteredHQFuturama.S02.x265.1080p.RemasteredHQ2ACV09 «A Bicyclops Built for Two» (Циклопов должно быть двое) [1080p].mkv 362 MB
Futurama.x265.1080p.RemasteredHQFuturama.S02.x265.1080p.RemasteredHQ2ACV10 «A Clone of My Own» (Мой собственный клон) [1080p].mkv 337 MB
Futurama.x265.1080p.RemasteredHQFuturama.S02.x265.1080p.RemasteredHQ2ACV11 «How Hermes Requisitioned His Groove Back» (Как Гермес конфисковал назад лю 340 MB
Futurama.x265.1080p.RemasteredHQFuturama.S02.x265.1080p.RemasteredHQ2ACV12 «The Deep South» (Глубокий Юг) [1080p].mkv 362 MB
Futurama.x265.1080p.RemasteredHQFuturama.S02.x265.1080p.RemasteredHQ2ACV13 «Bender Gets Made» (Бендер входит в дело) [1080p].mkv 350 MB
Futurama.x265.1080p.RemasteredHQFuturama.S02.x265.1080p.RemasteredHQ2ACV14 «Mother’s Day» (День Матери) [1080p].mkv 349 MB
Futurama.x265.1080p.RemasteredHQFuturama.S02.x265.1080p.RemasteredHQ2ACV15 «The Problem with Popplers» (Проблема с попплерами) [1080p].mkv 295 MB
Futurama.x265.1080p.RemasteredHQFuturama.S02.x265.1080p.RemasteredHQ2ACV16 «Anthology of Interest I» (Антология Интересов I) [1080p].mkv 299 MB
Futurama.x265.1080p.RemasteredHQFuturama.S02.x265.1080p.RemasteredHQ2ACV17 «War Is the H-Word» (Война — адское слово) [1080p].mkv 289 MB
Futurama.x265.1080p.RemasteredHQFuturama.S02.x265.1080p.RemasteredHQ2ACV18 «The Honking» (Гудок) [1080p].mkv 298 MB
Futurama.x265.1080p.RemasteredHQFuturama.S02.x265.1080p.RemasteredHQ2ACV19 «The Cryonic Woman» (Отмороженная женщина) [1080p].mkv 314 MB
Futurama.x265.1080p.RemasteredHQFuturama.S02.x265.1080p.RemasteredHQSpecial FeaturesSeason 2 Special Features — Deleted Scenes.mkv 47 MB

Stream

Downloading Seeding Futurama.x265.1080p.RemasteredHQ from to 0 peers.
of
0 b/s / ↗0 b/s