• 0
  • 0
  • done
Sponsored Download
  • Eric Rieger & J J Penna - Poet's Journey Song Cycles of Benjamin Britten (2018) [24-192]
  • 2.2 GB
  • ipokemongo
  • Eric Rieger Penna Poet Journey Song Cycles Benjamin Britten 2018 192
  • Hi-Res stereo и многоканальная

Description

Eric Rieger & J J Penna / Poet's Journey Song Cycles of Benjamin Britten

image

Формат записи/Источник записи : [TR24][OF]

Наличие водяных знаков : Нет

Год издания/переиздания диска : 2018

Жанр : Classical

Издатель (лейбл) : Affetto Recordings

Продолжительность : 01:07:19

Наличие сканов в содержимом раздачи : Буклет PDF

Треклист

Benjamin Britten (1913-76) :

Seven Sonnets of Michelangelo, Op. 22

18:57
01. No. 1, Sonnet 16, Si come nella penna e nell'inchiostro 2:21
02. No. 2, Sonnet 31, A che più debb'io mai l'intensa voglia 1:44
03. No. 3, Sonnet 30, Veggio co' bei vostri occhi un dolce lume 4:27
04. No. 4, Sonnet 55, Tu sa' ch'io so, signior mie, che tu sai 2:04
05. No. 5, Sonnet 38, Rendete a gli occhi miei, o fonte o fiume 2:03
06. No. 6, Sonnet 32, S'un casto amor, s'una pietà superna 1:26
07. No. 7, Sonnet 24, Spirto ben nato, in cui si specchia e vede 4:52

Winter Words, Op. 52

22:34
08. No. 1, At Day-Close in November 2:00
09. No. 2, Midnight on the Great Western 4:53
10. No. 3, Wagtail and Baby 2:05
11. No. 4, The Little Old Table 1:30
12. No. 5, The Choirmaster's Burial 4:23
13. No. 6, Proud Songsters 1:10
14. No. 7, At the Railway Station, Upway 3:20
15. No. 8, Before Life and After 3:13

The Holy Sonnets of John Donne, Op. 35

25:46
16. No. 1, Sonnet 6, Oh My Blacke Soule! 3:38
17. No. 2, Sonnet 14, Batter My Heart 1:18
18. No. 3, Sonnet 3, O Might Those Sighes and Teares 3:49
19. No. 4, Sonnet 19, Oh, to Vex Me 1:08
20. No. 5, Sonnet 13, What If This Present 3:07
21. No. 6, Sonnet 17, Since She Whom I Lov'd 3:58
22. No. 7, Sonnet 7, At the Round Earth's Imagin'd Corners 3:05
23. No. 8, Sonnet 1, Thou Hast Made Me 1:24
24. No. 9, Sonnet 10, Death, Be Not Proud 4:19


Eric Rieger (tenor), J J Penna (piano)
Recorded: 14-17 June 2017
Recording Venue: Hillman Hall, Westminster Choir College of Rider University, Princeton, New Jersey, USA


Контейнер : FLAC (*.flac)

Тип рипа : tracks

Разрядность : 24/192

Формат : PCM

Количество каналов : 2.0

BackCover

image

Лог проверки качества

`foobar2000 1.4.3 / Dynamic Range Meter 1.1.1
log date: 2019-05-15 20:24:18


Analyzed: Eric Rieger, J J Penna / Poet's Journey: Song Cycles of Benjamin Britten
DR Peak RMS Duration Track

DR13 -0.83 dB -19.32 dB 2:22 01-7 Sonnets of Michelangelo, Op. 22: No. 1, Sonnet 16, Si come nella penna e nell'inchiostro
DR12 -0.83 dB -18.34 dB 1:44 02-7 Sonnets of Michelangelo, Op. 22: No. 2, Sonnet 31, A che più debb'io mai l'intensa voglia
DR15 -3.16 dB -24.44 dB 4:27 03-7 Sonnets of Michelangelo, Op. 22: No. 3, Sonnet 30, Veggio co' bei vostri occhi un dolce lume
DR14 -0.83 dB -20.32 dB 2:05 04-7 Sonnets of Michelangelo, Op. 22: No. 4, Sonnet 55, Tu sa' ch'io so, signior mie, che tu sai
DR16 -0.83 dB -21.46 dB 2:04 05-7 Sonnets of Michelangelo, Op. 22: No. 5, Sonnet 38, Rendete a gli occhi miei, o fonte o fiume
DR13 -0.83 dB -18.76 dB 1:27 06-7 Sonnets of Michelangelo, Op. 22: No. 6, Sonnet 32, S'un casto amor, s'una pietà superna
DR16 -0.83 dB -21.81 dB 4:52 07-7 Sonnets of Michelangelo, Op. 22: No. 7, Sonnet 24, Spirto ben nato, in cui si specchia e vede
DR15 -1.08 dB -21.61 dB 2:01 08-Winter Words, Op. 52: No. 1, At Day-Close in November
DR15 -2.43 dB -23.73 dB 4:54 09-Winter Words, Op. 52: No. 2, Midnight on the Great Western
DR14 -2.11 dB -21.26 dB 2:05 10-Winter Words, Op. 52: No. 3, Wagtail and Baby
DR14 -4.76 dB -23.63 dB 1:30 11-Winter Words, Op. 52: No. 4, The Little Old Table
DR15 -2.22 dB -23.08 dB 4:24 12-Winter Words, Op. 52: No. 5, The Choirmaster's Burial
DR11 -0.83 dB -16.66 dB 1:10 13-Winter Words, Op. 52: No. 6, Proud Songsters
DR14 -2.68 dB -24.41 dB 3:21 14-Winter Words, Op. 52: No. 7, At the Railway Station, Upway
DR14 -0.85 dB -21.58 dB 3:14 15-Winter Words, Op. 52: No. 8, Before Life and After
DR14 -1.99 dB -23.40 dB 3:38 16-The Holy Sonnets of John Donne, Op. 35: No. 1, Sonnet 6, Oh My Blacke Soule!
DR13 -1.34 dB -18.70 dB 1:19 17-The Holy Sonnets of John Donne, Op. 35: No. 2, Sonnet 14, Batter My Heart
DR14 -2.84 dB -26.60 dB 3:50 18-The Holy Sonnets of John Donne, Op. 35: No. 3, Sonnet 3, O Might Those Sighes and Teares
DR13 -2.99 dB -21.33 dB 1:08 19-The Holy Sonnets of John Donne, Op. 35: No. 4, Sonnet 19, Oh, to Vex Me
DR14 -1.20 dB -21.03 dB 3:07 20-The Holy Sonnets of John Donne, Op. 35: No. 5, Sonnet 13, What If This Present
DR14 -1.49 dB -22.09 dB 3:59 21-The Holy Sonnets of John Donne, Op. 35: No. 6, Sonnet 17, Since She Whom I Lov'd
DR13 -3.63 dB -22.22 dB 3:05 22-The Holy Sonnets of John Donne, Op. 35: No. 7, Sonnet 7, At the Round Earth's Imagin'd Corners
DR12 -0.83 dB -17.14 dB 1:25 23-The Holy Sonnets of John Donne, Op. 35: No. 8, Sonnet 1, Thou Hast Made Me

DR14 -2.64 dB -22.99 dB 4:19 24-The Holy Sonnets of John Donne, Op. 35: No. 9, Sonnet 10, Death, Be Not Proud

Number of tracks: 24
Official DR value: DR14

Samplerate: 192000 Hz
Channels: 2
Bits per sample: 24
Bitrate: 4271 kbps
Codec: FLAC
================================================================================ `

Источник (релизер) : https://www.prestomusic.com/classical/products/8459377--poets-journey-song-cycles...benjamin-britten


More at ibit.to
And ibit.uno
And ibit.ws

Comments

Files

Eric Rieger & J J Penna - Poet's Journey Song Cycles of Benjamin Britten (2018) [24-192]07. 7 Sonnets of Michelangelo, Op. 22 No. 7, Sonnet 24, Spirto 159 MB
Eric Rieger & J J Penna - Poet's Journey Song Cycles of Benjamin Britten (2018) [24-192]02. 7 Sonnets of Michelangelo, Op. 22 No. 2, Sonnet 31, A che 59 MB
Eric Rieger & J J Penna - Poet's Journey Song Cycles of Benjamin Britten (2018) [24-192]03. 7 Sonnets of Michelangelo, Op. 22 No. 3, Sonnet 30, Veggio 146 MB
Eric Rieger & J J Penna - Poet's Journey Song Cycles of Benjamin Britten (2018) [24-192]04. 7 Sonnets of Michelangelo, Op. 22 No. 4, Sonnet 55, Tu sa' 69 MB
Eric Rieger & J J Penna - Poet's Journey Song Cycles of Benjamin Britten (2018) [24-192]05. 7 Sonnets of Michelangelo, Op. 22 No. 5, Sonnet 38, Rendet 69 MB
Eric Rieger & J J Penna - Poet's Journey Song Cycles of Benjamin Britten (2018) [24-192]06. 7 Sonnets of Michelangelo, Op. 22 No. 6, Sonnet 32, S'un c 49 MB
Eric Rieger & J J Penna - Poet's Journey Song Cycles of Benjamin Britten (2018) [24-192]01. 7 Sonnets of Michelangelo, Op. 22 No. 1, Sonnet 16, Si com 80 MB
Eric Rieger & J J Penna - Poet's Journey Song Cycles of Benjamin Britten (2018) [24-192]08. Winter Words, Op. 52 No. 1, At Day-Close in November.flac 65 MB
Eric Rieger & J J Penna - Poet's Journey Song Cycles of Benjamin Britten (2018) [24-192]09. Winter Words, Op. 52 No. 2, Midnight on the Great Western. 157 MB
Eric Rieger & J J Penna - Poet's Journey Song Cycles of Benjamin Britten (2018) [24-192]10. Winter Words, Op. 52 No. 3, Wagtail and Baby.flac 69 MB
Eric Rieger & J J Penna - Poet's Journey Song Cycles of Benjamin Britten (2018) [24-192]11. Winter Words, Op. 52 No. 4, The Little Old Table.flac 49 MB
Eric Rieger & J J Penna - Poet's Journey Song Cycles of Benjamin Britten (2018) [24-192]12. Winter Words, Op. 52 No. 5, The Choirmaster's Burial.flac 144 MB
Eric Rieger & J J Penna - Poet's Journey Song Cycles of Benjamin Britten (2018) [24-192]13. Winter Words, Op. 52 No. 6, Proud Songsters.flac 39 MB
Eric Rieger & J J Penna - Poet's Journey Song Cycles of Benjamin Britten (2018) [24-192]14. Winter Words, Op. 52 No. 7, At the Railway Station, Upway. 107 MB
Eric Rieger & J J Penna - Poet's Journey Song Cycles of Benjamin Britten (2018) [24-192]15. Winter Words, Op. 52 No. 8, Before Life and After.flac 107 MB
Eric Rieger & J J Penna - Poet's Journey Song Cycles of Benjamin Britten (2018) [24-192]16. The Holy Sonnets of John Donne, Op. 35 No. 1, Sonnet 6, Oh 119 MB
Eric Rieger & J J Penna - Poet's Journey Song Cycles of Benjamin Britten (2018) [24-192]17. The Holy Sonnets of John Donne, Op. 35 No. 2, Sonnet 14, B 44 MB
Eric Rieger & J J Penna - Poet's Journey Song Cycles of Benjamin Britten (2018) [24-192]18. The Holy Sonnets of John Donne, Op. 35 No. 3, Sonnet 3, O 121 MB
Eric Rieger & J J Penna - Poet's Journey Song Cycles of Benjamin Britten (2018) [24-192]19. The Holy Sonnets of John Donne, Op. 35 No. 4, Sonnet 19, O 38 MB
Eric Rieger & J J Penna - Poet's Journey Song Cycles of Benjamin Britten (2018) [24-192]20. The Holy Sonnets of John Donne, Op. 35 No. 5, Sonnet 13, W 102 MB
Eric Rieger & J J Penna - Poet's Journey Song Cycles of Benjamin Britten (2018) [24-192]21. The Holy Sonnets of John Donne, Op. 35 No. 6, Sonnet 17, S 130 MB
Eric Rieger & J J Penna - Poet's Journey Song Cycles of Benjamin Britten (2018) [24-192]22. The Holy Sonnets of John Donne, Op. 35 No. 7, Sonnet 7, At 100 MB
Eric Rieger & J J Penna - Poet's Journey Song Cycles of Benjamin Britten (2018) [24-192]23. The Holy Sonnets of John Donne, Op. 35 No. 8, Sonnet 1, Th 48 MB
Eric Rieger & J J Penna - Poet's Journey Song Cycles of Benjamin Britten (2018) [24-192]24. The Holy Sonnets of John Donne, Op. 35 No. 9, Sonnet 10, D 138 MB
Eric Rieger & J J Penna - Poet's Journey Song Cycles of Benjamin Britten (2018) [24-192]booklet.pdf 6.8 MB
Eric Rieger & J J Penna - Poet's Journey Song Cycles of Benjamin Britten (2018) [24-192]Cover.jpg 51 kB
Eric Rieger & J J Penna - Poet's Journey Song Cycles of Benjamin Britten (2018) [24-192]foo_dr.txt 3.7 kB
Eric Rieger & J J Penna - Poet's Journey Song Cycles of Benjamin Britten (2018) [24-192]TOP - IsraBox.url 68 B

Stream

Downloading Seeding Eric Rieger & J J Penna - Poet's Journey Song Cycles of Benjamin Britten (2018) [24-192] from to 0 peers.
of
0 b/s / ↗0 b/s