• 0
  • 0
  • done
Download

Description

Eddie Daniels - Heart of Brazil: A Tribute to Egberto Gismonti

image

Жанр : Choro, Tango, Bossa Nova

Носитель : CD

Страна-производитель диска (релиза) : США

Год издания : 2018

Издатель (лейбл) : Resonance Records

Номер по каталогу : RCD-1027

Аудиокодек : FLAC (*.flac)

Тип рипа : tracks+.cue

Битрейт аудио : lossless

Продолжительность : 77:08

Источник (релизер) : rbbert

Наличие сканов в содержимом раздачи : нет

Треклист :
01. Loro (Parrot) (Gismonti) - 5:08
02. Baiao Malandro (Badass Baiao) (Gismonti) - 5:51
03. Agua e Vinho (Water and Wine) (Gismonti) - 6:08
04. Ciranda (Folk Dance) (Gismonti) - 5:11
05. Folia (Revelry) (Gismonti) - 4:23
06. Maracatu (Sacred Rhythm) (Gismonti) - 5:52
07. Adagio (Gismonti) - 6:00
08. Tango Nova (New Tango) (Daniels) - 5:46
09. Choro (Gismonti) - 6:02
10. Tango (Gismonti) - 4:40
11. Cigana (Gypsy Woman) (String Orchestra) (Gismonti) - 7:37
12. Trem Noturno (Night Train) (Gismonti) - 7:44
13. Auto-Retrato (Self-Portrait) (Gismonti) - 6:46

Лог создания рипа

`Exact Audio Copy V1.0 beta 3 from 29. August 2011

EAC extraction logfile from 15. December 2018, 15:40

Eddie Daniels / Heart of Brazil

Used drive : ASUS BC-12B1ST b Adapter: 0 ID: 0

Read mode : Secure
Utilize accurate stream : Yes
Defeat audio cache : Yes
Make use of C2 pointers : No

Read offset correction : 6
Overread into Lead-In and Lead-Out : No
Fill up missing offset samples with silence : Yes
Delete leading and trailing silent blocks : No
Null samples used in CRC calculations : Yes
Used interface : Native Win32 interface for Win NT & 2000
Gap handling : Appended to previous track

Used output format : User Defined Encoder
Selected bitrate : 1024 kBit/s
Quality : High
Add ID3 tag : No
Command line compressor : C:Program Files (x86)Exact Audio CopyFLACFLAC.EXE
Additional command line options : -8 -V -T "ARTIST=%artist%" -T "TITLE=%src%" -T "ALBUM=%albumsrc%" -T "DATE=%year%" -T "TRACKNUMBER=%tracknr%" -T "GENRE=%genre%" -T "COMMENT=%comment%" -T "BAND=%albuminterpret%" -T "ALBUMARTIST=%albuminterpret%" -T "COMPOSER=%composer%" %haslyrics%--tag-from-file=LYRICS="%lyricsfile%"%haslyrics% -T "DISCNUMBER=%cdnumber%" -T "TOTALDISCS=%totalcds%" -T "TOTALTRACKS=%numtracks%" %hascover%--picture="%coverfile%"%hascover% %source% -o %dest%

TOC of the extracted CD

Track | Start | Length | Start sector | End sector


1 | 0:00.00 | 5:08.26 | 0 | 23125
2 | 5:08.26 | 5:51.20 | 23126 | 49470
3 | 10:59.46 | 6:07.65 | 49471 | 77060
4 | 17:07.36 | 5:11.02 | 77061 | 100387
5 | 22:18.38 | 4:23.37 | 100388 | 120149
6 | 26:42.00 | 5:52.27 | 120150 | 146576
7 | 32:34.27 | 5:59.57 | 146577 | 173558
8 | 38:34.09 | 5:45.40 | 173559 | 199473
9 | 44:19.49 | 6:02.05 | 199474 | 226628
10 | 50:21.54 | 4:40.17 | 226629 | 247645
11 | 55:01.71 | 7:36.45 | 247646 | 281890
12 | 62:38.41 | 7:44.27 | 281891 | 316717
13 | 70:22.68 | 6:45.42 | 316718 | 347134

Track 1

Filename F:Music 22Eddie Daniels - Heart of Brazil (2018)01 - Loro.wav

Pre-gap length 0:00:02.00

Peak level 100.0 %
Extraction speed 2.9 X
Track quality 100.0 %
Test CRC 8CBF0D80
Copy CRC 8CBF0D80
Accurately ripped (confidence 2) EAC43F16
Copy OK

Track 2

Filename F:Music 22Eddie Daniels - Heart of Brazil (2018)02 - Baiao Malandro.wav

Peak level 100.0 %
Extraction speed 1.2 X
Track quality 99.9 %
Test CRC 5FBEBCE6
Copy CRC 5FBEBCE6
Accurately ripped (confidence 2) 157EFACD
Copy OK

Track 3

Filename F:Music 22Eddie Daniels - Heart of Brazil (2018)03 - Agua e Vinho.wav

Peak level 94.4 %
Extraction speed 1.4 X
Track quality 99.9 %
Test CRC F4030C0F
Copy CRC F4030C0F
Accurately ripped (confidence 2) B5AA38E5
Copy OK

Track 4

Filename F:Music 22Eddie Daniels - Heart of Brazil (2018)04 - Ciranda.wav

Peak level 91.5 %
Extraction speed 1.6 X
Track quality 100.0 %
Test CRC B1F17FAA
Copy CRC B1F17FAA
Accurately ripped (confidence 2) CF93308D
Copy OK

Track 5

Filename F:Music 22Eddie Daniels - Heart of Brazil (2018)05 - Folia.wav

Peak level 99.7 %
Extraction speed 1.7 X
Track quality 100.0 %
Test CRC AAD88949
Copy CRC AAD88949
Accurately ripped (confidence 2) 8CCD9D13
Copy OK

Track 6

Filename F:Music 22Eddie Daniels - Heart of Brazil (2018)06 - Maracatu.wav

Peak level 100.0 %
Extraction speed 1.8 X
Track quality 100.0 %
Test CRC 255E93C5
Copy CRC 255E93C5
Accurately ripped (confidence 2) E5CB40F3
Copy OK

Track 7

Filename F:Music 22Eddie Daniels - Heart of Brazil (2018)07 - Adagio.wav

Peak level 95.4 %
Extraction speed 1.9 X
Track quality 100.0 %
Test CRC 44863D9D
Copy CRC 44863D9D
Accurately ripped (confidence 2) C2CBE0FB
Copy OK

Track 8

Filename F:Music 22Eddie Daniels - Heart of Brazil (2018)08 - Tango Nova.wav

Peak level 100.0 %
Extraction speed 2.1 X
Track quality 100.0 %
Test CRC CE84874B
Copy CRC CE84874B
Accurately ripped (confidence 2) BF38AE13
Copy OK

Track 9

Filename F:Music 22Eddie Daniels - Heart of Brazil (2018)09 - Choro.wav

Peak level 96.0 %
Extraction speed 2.1 X
Track quality 100.0 %
Test CRC EBB482B0
Copy CRC EBB482B0
Accurately ripped (confidence 2) 73A3BB6A
Copy OK

Track 10

Filename F:Music 22Eddie Daniels - Heart of Brazil (2018)10 - Tango.wav

Peak level 89.4 %
Extraction speed 2.2 X
Track quality 100.0 %
Test CRC 27883F0C
Copy CRC 27883F0C
Accurately ripped (confidence 2) 65496748
Copy OK

Track 11

Filename F:Music 22Eddie Daniels - Heart of Brazil (2018)11 - Cigana.wav

Peak level 88.6 %
Extraction speed 2.4 X
Track quality 100.0 %
Test CRC 9AF1640A
Copy CRC 9AF1640A
Accurately ripped (confidence 2) 12EE8DAE
Copy OK

Track 12

Filename F:Music 22Eddie Daniels - Heart of Brazil (2018)12 - Trem Noturno.wav

Peak level 100.0 %
Extraction speed 2.5 X
Track quality 100.0 %
Test CRC F1193B5A
Copy CRC F1193B5A
Accurately ripped (confidence 2) 0942BA72
Copy OK

Track 13

Filename F:Music 22Eddie Daniels - Heart of Brazil (2018)13 - Auto-Retrato.wav

Peak level 100.0 %
Extraction speed 2.6 X
Track quality 100.0 %
Test CRC 8E2FE866
Copy CRC 8E2FE866
Accurately ripped (confidence 2) 32F3A03F
Copy OK

All tracks accurately ripped

No errors occurred

End of status report

==== Log checksum BA606104CAD56A0851672E3FE328B69E2D624E0706EC98591A67A19ACC715E31 ==== `

Содержание индексной карты (.CUE)

REM GENRE Jazz REM DATE 2018 REM DISCID 8F12140D REM COMMENT "ExactAudioCopy v1.0b3" PERFORMER "Eddie Daniels" TITLE "Heart of Brazil: A Tribute to Egberto Gismonti" FILE "01 - Loro (Parrot).wav" WAVE TRACK 01 AUDIO TITLE "Loro (Parrot)" PERFORMER "Eddie Daniels" INDEX 01 00:00:00 FILE "02 - Baiao Malandro (Badass Baiao).wav" WAVE TRACK 02 AUDIO TITLE "Baiao Malandro (Badass Baiao)" PERFORMER "Eddie Daniels" INDEX 01 00:00:00 FILE "03 - Agua e Vinho (Water and Wine).wav" WAVE TRACK 03 AUDIO TITLE "Agua e Vinho (Water and Wine)" PERFORMER "Eddie Daniels" INDEX 01 00:00:00 FILE "04 - Ciranda (Folk Dance).wav" WAVE TRACK 04 AUDIO TITLE "Ciranda (Folk Dance)" PERFORMER "Eddie Daniels" INDEX 01 00:00:00 FILE "05 - Folia (Revelry).wav" WAVE TRACK 05 AUDIO TITLE "Folia (Revelry)" PERFORMER "Eddie Daniels" INDEX 01 00:00:00 FILE "06 - Maracatu (Sacred Rhythm).wav" WAVE TRACK 06 AUDIO TITLE "Maracatu (Sacred Rhythm)" PERFORMER "Eddie Daniels" INDEX 01 00:00:00 FILE "07 - Adagio.wav" WAVE TRACK 07 AUDIO TITLE "Adagio" PERFORMER "Eddie Daniels" INDEX 01 00:00:00 FILE "08 - Tango Nova (New Tango).wav" WAVE TRACK 08 AUDIO TITLE "Tango Nova (New Tango)" PERFORMER "Eddie Daniels" INDEX 01 00:00:00 FILE "09 - Choro.wav" WAVE TRACK 09 AUDIO TITLE "Choro" PERFORMER "Eddie Daniels" INDEX 01 00:00:00 FILE "10 - Tango.wav" WAVE TRACK 10 AUDIO TITLE "Tango" PERFORMER "Eddie Daniels" INDEX 01 00:00:00 FILE "11 - Cigana (Gypsy Woman).wav" WAVE TRACK 11 AUDIO TITLE "Cigana (Gypsy Woman)" PERFORMER "Eddie Daniels" INDEX 01 00:00:00 FILE "12 - Trem Noturno (Night Train).wav" WAVE TRACK 12 AUDIO TITLE "Trem Noturno (Night Train)" PERFORMER "Eddie Daniels" INDEX 01 00:00:00 FILE "13 - Auto-Retrato (Self-Portrait).wav" WAVE TRACK 13 AUDIO TITLE "Auto-Retrato (Self-Portrait)" PERFORMER "Eddie Daniels" INDEX 01 00:00:00

Отчет CUETools

`[CUETools log; Date: 16.12.2018 12:21:14; Version: 2.1.6]
[CTDB TOCID: 7_s8DDeg1wvD.xonLNQFVbFIHo4-] found.
Track | CTDB Status
1 | (6/6) Accurately ripped
2 | (6/6) Accurately ripped
3 | (6/6) Accurately ripped
4 | (6/6) Accurately ripped
5 | (6/6) Accurately ripped
6 | (6/6) Accurately ripped
7 | (6/6) Accurately ripped
8 | (6/6) Accurately ripped
9 | (6/6) Accurately ripped
10 | (6/6) Accurately ripped
11 | (6/6) Accurately ripped
12 | (6/6) Accurately ripped
13 | (6/6) Accurately ripped
[AccurateRip ID: 00233ec1-0163504f-8f12140d] found.
Track [CRC | V2] Status
01 80162d96|eac43f16 Accurately ripped
02 4c46cf6a|157efacd Accurately ripped
03 f377dc1a|b5aa38e5 Accurately ripped
04 1c943204|cf93308d Accurately ripped
05 d6a754f8|8ccd9d13 Accurately ripped
06 62a9b74c|e5cb40f3 Accurately ripped
07 2bd298a9|c2cbe0fb Accurately ripped
08 1d4974e8|bf38ae13 Accurately ripped
09 cafa6247|73a3bb6a Accurately ripped
10 a6739f36|65496748 Accurately ripped
11 f7985fa8|12ee8dae Accurately ripped
12 80e38115|0942ba72 Accurately ripped
13 df3c6792|32f3a03f Accurately ripped

Track Peak [CRC32] [W/O NULL] [LOG]
-- 100,0 [8619E4A7] [09C5D0DA]
01 100,0 [8CBF0D80] [153D33E0] CRC32
02 100,0 [5FBEBCE6] [3A4EA628] CRC32
03 94,4 [F4030C0F] [E379B1E7] CRC32
04 91,5 [B1F17FAA] [F881ED75] CRC32
05 99,7 [AAD88949] [03B7B5C8] CRC32
06 100,0 [255E93C5] [99E02725] CRC32
07 95,4 [44863D9D] [BB0360ED] CRC32
08 100,0 [CE84874B] [3A7F0C1E] CRC32
09 96,0 [EBB482B0] [ADB58DE7] CRC32
10 89,4 [27883F0C] [316DFCA0] CRC32
11 88,6 [9AF1640A] [3BEFE65A] CRC32
12 100,0 [F1193B5A] [14F87919] CRC32
13 100,0 [8E2FE866] [D83B97DE] CRC32 `

Review by Dan Bilawsky

When Resonance Records' George Klabin pitched Eddie Daniels on this project saluting Egberto Gismonti, the legendary reedist was enthused yet somewhat trepidatious. Gismonti's music—a sui generis form of fantasia that proves evocative in its blending of Brazilian forms, a jazz harmonist's argot, and European classical languages—is no easy nut to crack or translate. But Daniels, of course, is no slouch. A doyen of the clarinet and an expert at navigating tricky divides like the potentially deadly jazz-classical fault line, he proved more than up to the task.
Heart Of Brazil finds Daniels primarily interpreting music that Gismonti produced in the '70s and early '80s. The settings, put together by the likes of ace arrangers Ted Nash, Kuno Schmid, and Josh Nelson, are ravishing; the core quartet—Daniels, Nelson on piano, Kevin Axt on bass, and Mauricio Zottarelli on drums—sets the music aloft; and the strings of the Harlem Quartet prove absolutely integral, weaving in, out, around, and through these spellbinding songs. Once merely a hypothetical dream project for Klabin, his aspirations have been realized and, perhaps, exceeded.
Opening on "Lôro (Parrot)," a song penned in honor of Hermeto Pascoal, Daniels' clarinet genially bounds around in concert with Nelson's keys while outwardly projecting unbridled virtuosity and warmth. Then the strings introduce "Baião Malandro (Badass Baião)," a number bolstered by Axt's lively bass. It offers Daniels and Nelson some room to open up, all the while nodding to the titular form painted with a variegated scheme.
"Água e Vinho (Water and Wine)" marks the first appearance of Daniels' tenor, emulating the male voice in this most hauntingly beautiful of scenarios. He holds onto that horn for "Ciranda (Folk Dance)," playing on passion over dawning rubato, but he returns to his clarinet when things heat up on the wildly expansive "Folia (Revelry)." That showpiece par excellence—a bold and audacious bricolage with a genius arrangement from Nelson—proves to be a real standout on an album full of them.
As the program progresses, so too does the feasibility of each song offering a world unto itself. "Maracatú (Sacred Rhythm)" draws on its eponymous Afro-Brazilian form and rhythm(s) while offering a melodious high ground and teetering motifs; "Adágio" is impressionism set free on a starlit walkway, influenced by Ravel and unabashedly romantic in its embrace of strings; "Chôro" coasts in with the gentlest of introductions before adopting its namesake style in its breeziest state; and "Cigana (Gypsy Woman)" paints a beautifully pensive picture of the roaming Romany. Every gift from Gismonti proves completely distinctive in nature, and each of these arrangements and performances illuminates the core qualities of his compositions.
As per usual with Resonance, the packaging has its place in the story and comes to also represent the seriousness of intentions behind the project. With an introduction from Klabin, detailed program notes from the esteemed James Gavin, and a translated interview Gavin held with Gismonti in early 2018, the liners amplify the brilliance of this album and the need it fills.

Состав

Eddie Daniels - clarinet, tenor saxophone
Josh Nelson - piano
Kevin Axt - bass
Mauricio Zottarelli - drums
Harlem Quartet:
Ilmar Gavilan, Melissa White - violin
Jamey Amador - viola
Felix Umansky - cello

Recorded in Beverly Hills, CA in April-July 2017.


More at ibit.to
And ibit.uno
And ibit.am
And ibit.ws

Comments

Files

Artworkback.jpg 257 kB
Eddie Daniels - Heart of Brazil- A Tribute to Egberto Gismonti.log 13 kB
Heart of Brazil- A Tribute to Egberto Gismonti.cue 2.0 kB
07 - Adagio.flac 35 MB
Eddie Daniels - Heart of Brazil- A Tribute to Egberto Gismonti.m3u 398 B
folder.jpg 82 kB
13 - Auto-Retrato (Self-Portrait).flac 40 MB
08 - Tango Nova (New Tango).flac 38 MB
05 - Folia (Revelry).flac 27 MB
02 - Baiao Malandro (Badass Baiao).flac 39 MB
03 - Agua e Vinho (Water and Wine).flac 35 MB
12 - Trem Noturno (Night Train).flac 42 MB
10 - Tango.flac 20 MB
04 - Ciranda (Folk Dance).flac 32 MB
09 - Choro.flac 36 MB
Heart of Brazil- A Tribute to Egberto Gismonti.accurip 2.0 kB
11 - Cigana (Gypsy Woman).flac 32 MB
Artworkfront.jpg 282 kB
01 - Loro (Parrot).flac 35 MB
06 - Maracatu (Sacred Rhythm).flac 35 MB

Stream

Downloading Seeding Eddie Daniels - Heart of Brazil- A Tribute to Egberto Gismonti (2018, Resonance) from to 0 peers.
of
0 b/s / ↗0 b/s