• -
  • -
  • done
Download
  • Due Date (Тодд Филлипс
  • 11 GB
  • lyova55
  • Date
  • Главная

Description

Впритык / Due Date

image

Страна : США

Студия : Warner Bros., Legendary Entertainment, Green Hat Films

Жанр : Комедия

Год выпуска : 2010

Продолжительность : 01:35:16

Перевод 1 : Дублированный (Мосфильм-Мастер)

Перевод 2 : Профессиональный двухголосый

Перевод 3 : Авторский одноголосый (Сербин)

Перевод 4 : Любительский одноголосый (seqw0) ненорматив

Перевод 5 : Любительский одноголосый (parano1k) ненорматив

Перевод 6 : Дублированный

Субтитры : Русские (forced, full), Английские (full)

Оригинальная аудиодорожка : Английский

Режиссер : Тодд Филлипс / Todd Phillips

В ролях : Роберт Дауни мл., Зак Галифианакис, Мишель Монахэн, Джейми Фокс, Джульетт Льюис, Дэнни МакБрайд, РЗА, Мэтт Уолш, Броди Стивенс, Джейкоб Ульрих

Описание : Питер готовится стать отцом и находится на грани нервного срыва. И его нервам не идет на пользу тот факт, что ему предстоит предпринять целое путешествие, да еще и в компании честолюбивого актера, чтобы успеть добраться домой к рождению собственного ребенка.

Доп. информация :

• За исходник благодарим TeamHD и maksnew

• Исходник видео WEB-DL Open Matte поверх которого был уложен OAR Blu-ray

• Мультитрекерная раздача

image image image

Тип релиза : HybridRip 1080p

Контейнер : MKV

Видео : AVC/H.264, 1920x1080, ~14000 kbps, 23.976 fps

Аудио 1: AC3, 6 ch, 448 kbps | Русский DUB (Мосфильм-Мастер)

Аудио 2: AC3, 6 ch, 384 kbps | Русский DVO

Аудио 3: AC3, 6 ch, 640 kbps | Русский AVO (Сербин)

Аудио 4: AC3, 6 ch, 448 kbps | Русский VO (seqw0) ненорматив

Аудио 5: AC3, 2 ch, 192 kbps | Русский VO (parano1k) ненорматив

Аудио 6: AC3, 6 ch, 448 kbps | Украинский DUB

Аудио 7: AC3, 6 ch, 448 kbps | Английский

Формат субтитров : softsub (SRT)

MediaInfo

`
General
Unique ID : 263555768668637634745261706481408312118 (0xC646FEA3F877BCE46E5AE298FB068336)
Complete name : D:Vprityk (2010).mkv
Format : Matroska
Format version : Version 4
File size : 11.3 GiB
Duration : 1 h 35 min
Overall bit rate : 17.0 Mb/s
Movie name : Vprityk (2010)
Encoded date : UTC 2022-04-29 16:24:29
Writing application : mkvmerge v56.1.0 ('My Friend') 64-bit
Writing library : libebml v1.4.2 + libmatroska v1.6.4

Video
ID : 1
Format : AVC
Format/Info : Advanced Video Codec
Format profile : [email protected]
Format settings : CABAC / 4 Ref Frames
Format settings, CABAC : Yes
Format settings, Reference frames : 4 frames
Codec ID : VMPEG4/ISO/AVC
Duration : 1 h 35 min
Bit rate : 14.0 Mb/s
Width : 1 920 pixels
Height : 1 080 pixels
Display aspect ratio : 16:9
Frame rate mode : Constant
Frame rate : 23.976 (24000/1001) FPS
Color space : YUV
Chroma subsampling : 4:2:0
Bit depth : 8 bits
Scan type : Progressive
Bits/(Pixel*Frame) : 0.282
Stream size : 9.31 GiB (82%)
Writing library : x264 core 161 r3027 4121277
Encoding settings : cabac=1 / ref=4 / deblock=1:-1:-1 / analyse=0x3:0x133 / me=umh / subme=11 / psy=1 / psy
rd=1.00:0.00 / mixedref=1 / merange=32 / chromame=1 / trellis=2 / 8x8dct=1 / cqm=0 / deadzone=21,11 / fastpskip=0 / chromaqpoffset=-2 / threads=12 / lookaheadthreads=2 / slicedthreads=0 / nr=0 / decimate=0 / interlaced=0 / bluraycompat=0 / constrainedintra=0 / bframes=14 / bpyramid=2 / badapt=2 / bbias=0 / direct=3 / weightb=1 / opengop=0 / weightp=2 / keyint=240 / keyintmin=23 / scenecut=40 / intrarefresh=0 / rc=2pass / mbtree=0 / bitrate=14000 / ratetol=1.0 / qcomp=0.60 / qpmin=0 / qpmax=69 / qpstep=4 / cplxblur=20.0 / qblur=0.5 / ipratio=1.40 / pbratio=1.30 / aq=2:0.80
Language : English
Default : No
Forced : No

Audio #1
ID : 2
Format : AC-3
Format/Info : Audio Coding 3
Commercial name : Dolby Digital
Codec ID : A_AC3
Duration : 1 h 35 min
Bit rate mode : Constant
Bit rate : 448 kb/s
Channel(s) : 6 channels
Channel layout : L R C LFE Ls Rs
Sampling rate : 48.0 kHz
Frame rate : 31.250 FPS (1536 SPF)
Compression mode : Lossy
Stream size : 305 MiB (3%)
Title : DUB (Мосфильм-Мастер)
Language : Russian
Service kind : Complete Main
Default : Yes
Forced : Yes

Audio #2
ID : 3
Format : AC-3
Format/Info : Audio Coding 3
Commercial name : Dolby Digital
Codec ID : A_AC3
Duration : 1 h 35 min
Bit rate mode : Constant
Bit rate : 384 kb/s
Channel(s) : 6 channels
Channel layout : L R C LFE Ls Rs
Sampling rate : 48.0 kHz
Frame rate : 31.250 FPS (1536 SPF)
Compression mode : Lossy
Stream size : 262 MiB (2%)
Title : DVO
Language : Russian
Service kind : Complete Main
Default : No
Forced : No

Audio #3
ID : 4
Format : AC-3
Format/Info : Audio Coding 3
Commercial name : Dolby Digital
Codec ID : A_AC3
Duration : 1 h 35 min
Bit rate mode : Constant
Bit rate : 640 kb/s
Channel(s) : 6 channels
Channel layout : L R C LFE Ls Rs
Sampling rate : 48.0 kHz
Frame rate : 31.250 FPS (1536 SPF)
Compression mode : Lossy
Stream size : 436 MiB (4%)
Title : AVO (Сербин)
Language : Russian
Service kind : Complete Main
Default : No
Forced : No

Audio #4
ID : 5
Format : AC-3
Format/Info : Audio Coding 3
Commercial name : Dolby Digital
Codec ID : A_AC3
Duration : 1 h 35 min
Bit rate mode : Constant
Bit rate : 448 kb/s
Channel(s) : 6 channels
Channel layout : L R C LFE Ls Rs
Sampling rate : 48.0 kHz
Frame rate : 31.250 FPS (1536 SPF)
Compression mode : Lossy
Stream size : 305 MiB (3%)
Title : VO (seqw0) - ненорматив
Language : Russian
Service kind : Complete Main
Default : No
Forced : No

Audio #5
ID : 6
Format : AC-3
Format/Info : Audio Coding 3
Commercial name : Dolby Digital
Codec ID : A_AC3
Duration : 1 h 35 min
Bit rate mode : Constant
Bit rate : 192 kb/s
Channel(s) : 2 channels
Channel layout : L R
Sampling rate : 48.0 kHz
Frame rate : 31.250 FPS (1536 SPF)
Compression mode : Lossy
Stream size : 131 MiB (1%)
Title : VO (parano1k) - ненорматив
Language : Russian
Service kind : Complete Main
Default : No
Forced : No

Audio #6
ID : 7
Format : AC-3
Format/Info : Audio Coding 3
Commercial name : Dolby Digital
Codec ID : A_AC3
Duration : 1 h 35 min
Bit rate mode : Constant
Bit rate : 448 kb/s
Channel(s) : 6 channels
Channel layout : L R C LFE Ls Rs
Sampling rate : 48.0 kHz
Frame rate : 31.250 FPS (1536 SPF)
Compression mode : Lossy
Stream size : 305 MiB (3%)
Title : DUB
Language : Ukrainian
Service kind : Complete Main
Default : No
Forced : No

Audio #7
ID : 8
Format : AC-3
Format/Info : Audio Coding 3
Commercial name : Dolby Digital
Codec ID : A_AC3
Duration : 1 h 35 min
Bit rate mode : Constant
Bit rate : 448 kb/s
Channel(s) : 6 channels
Channel layout : L R C LFE Ls Rs
Sampling rate : 48.0 kHz
Frame rate : 31.250 FPS (1536 SPF)
Compression mode : Lossy
Stream size : 305 MiB (3%)
Title : Original
Language : English
Service kind : Complete Main
Default : No
Forced : No

Text #1
ID : 9
Format : UTF-8
Codec ID : S_TEXT/UTF8
Codec ID/Info : UTF-8 Plain Text
Duration : 1 h 27 min
Bit rate : 0 b/s
Count of elements : 11
Stream size : 312 Bytes (0%)
Title : Forced
Language : Russian
Default : Yes
Forced : Yes

Text #2
ID : 10
Format : UTF-8
Codec ID : S_TEXT/UTF8
Codec ID/Info : UTF-8 Plain Text
Duration : 1 h 29 min
Bit rate : 83 b/s
Count of elements : 1762
Stream size : 54.6 KiB (0%)
Language : Russian
Default : No
Forced : No

Text #3
ID : 11
Format : UTF-8
Codec ID : S_TEXT/UTF8
Codec ID/Info : UTF-8 Plain Text
Duration : 1 h 29 min
Bit rate : 82 b/s
Count of elements : 1492
Stream size : 53.7 KiB (0%)
Language : English
Default : No
Forced : No

Menu
00:00:00.000 : :Chapter 01
00:09:58.055 : :Chapter 02
00:18:37.157 : :Chapter 03
00:30:19.943 : :Chapter 04
00:40:59.415 : :Chapter 05
00:50:43.457 : :Chapter 06
00:58:39.807 : :Chapter 07
01:08:47.790 : :Chapter 08
01:18:34.418 : :Chapter 09
01:28:30.555 : :Chapter 10
`

Скриншоты

image image image image image


More at ibit.to
And ibit.uno
And ibit.am
And ibit.ws

Comments

Files

Stream

Downloading Seeding Due Date (Тодд Филлипс from to 0 peers.
of
0 b/s / ↗0 b/s