• 2
  • 5
ondemand_video
54%

Spinning Man (2018)

  • Mystery Thriller
  • Evan Birch, a family man and esteemed philosophy professor at a distinguished college, is the prime suspect when a female student goes missing.

    expand_more
    English
  • $8,500,000
  • Description

    **image

    Regista: Simon Kaijser

    Genere: Drammatico, Thriller

    Anno: 2018

    Paese: Irlanda, Svezia, USA

    Durata: 100 min

    Distribuzione: Lionsgate Premiere (USA), BIM Distribuzione (Italia)

    Plot: Doppia colpa, film diretto da Simon Kaijser, è la storia di Evan Birch (Guy Pearce), uomo affascinante, marito felice, padre amorevole e stimato professore di filosofia. Quando Joyce (Odeya Rush), una studentessa di un college vicino dove lavora, scompare misteriosamente, i sospetti ricadono proprio su Evan a causa di alcuni eventi del passato che ritornano a perseguitarlo.

    A happily married professor, known for having many affairs with students, becomes the prime suspect when a young woman has gone missing.

    image 

    image

    image

    image

    image

    image

    General

    Unique ID                                : 97521896901784859702974448584943444740 (0x495E08BDE6A79CAE440635CDDC87A304)

    Complete name                            : Doppia Colpa-Spinning Man (2018) ITA-ENG Ac3 5.1 BDRip 1080p H264 [ArMor].mkv

    Format                                   : Matroska

    Format version                           : Version 4

    File size                                : 3.37 GiB

    Duration                                 : 1 h 40 min

    Overall bit rate                         : 4 814 kb/s

    Encoded date                             : UTC 2020-08-01 05:43:10

    Writing application                      : HandBrake 1.3.3 2020061300

    Writing library                          : Lavf58.29.100

    ErrorDetectionType                       : Per level 1

    Video

    ID                                       : 1

    Format                                   : AVC

    Format/Info                              : Advanced Video Codec

    Format profile                           : [email protected]

    Format settings                          : CABAC / 4 Ref Frames

    Format settings, CABAC                   : Yes

    Format settings, Reference frames        : 4 frames

    Codec ID                                 : V_MPEG4/ISO/AVC

    Duration                                 : 1 h 40 min

    Bit rate                                 : 4 000 kb/s

    Width                                    : 1 920 pixels

    Height                                   : 804 pixels

    Display aspect ratio                     : 2.40:1

    Frame rate mode                          : Constant

    Frame rate                               : 23.976 (24000/1001) FPS

    Color space                              : YUV

    Chroma subsampling                       : 4:2:0

    Bit depth                                : 8 bits

    Scan type                                : Progressive

    Bits/(Pixel*Frame)                       : 0.108

    Stream size                              : 2.68 GiB (79%)

    Writing library                          : x264 core 157 r2935 545de2f

    Encoding settings                        : cabac=1 / ref=2 / deblock=1:0:0 / analyse=0x1:0x111 / me=hex / subme=6 / psy=1 / psyrd=1.00:0.00 / mixedref=1 / merange=16 / chromame=1 / trellis=1 / 8x8dct=0 / cqm=0 / deadzone=21,11 / fastpskip=1 / chromaqpoffset=-2 / threads=18 / lookaheadthreads=3 / slicedthreads=0 / nr=0 / decimate=1 / interlaced=0 / bluraycompat=0 / constrainedintra=0 / bframes=3 / bpyramid=2 / badapt=1 / bbias=0 / direct=1 / weightb=1 / opengop=0 / weightp=1 / keyint=240 / keyintmin=24 / scenecut=40 / intrarefresh=0 / rclookahead=30 / rc=abr / mbtree=1 / bitrate=4000 / ratetol=1.0 / qcomp=0.60 / qpmin=0 / qpmax=69 / qpstep=4 / vbvmaxrate=50000 / vbvbufsize=62500 / nalhrd=none / filler=0 / ipratio=1.40 / aq=1:1.00

    Default                                  : Yes

    Forced                                   : No

    Color range                              : Limited

    Color primaries                          : BT.709

    Transfer characteristics                 : BT.709

    Matrix coefficients                      : BT.709

    Audio #1

    ID                                       : 2

    Format                                   : AC-3

    Format/Info                              : Audio Coding 3

    Commercial name                          : Dolby Digital

    Codec ID                                 : A_AC3

    Duration                                 : 1 h 40 min

    Bit rate mode                            : Constant

    Bit rate                                 : 448 kb/s

    Channel(s)                               : 6 channels

    Channel layout                           : L R C LFE Ls Rs

    Sampling rate                            : 48.0 kHz

    Frame rate                               : 31.250 FPS (1536 SPF)

    Compression mode                         : Lossy

    Stream size                              : 321 MiB (9%)

    Title                                    : Surround

    Language                                 : Italian

    Service kind                             : Complete Main

    Default                                  : Yes

    Forced                                   : No

    Audio #2

    ID                                       : 3

    Format                                   : AC-3

    Format/Info                              : Audio Coding 3

    Commercial name                          : Dolby Digital

    Codec ID                                 : A_AC3

    Duration                                 : 1 h 40 min

    Bit rate mode                            : Constant

    Bit rate                                 : 448 kb/s

    Channel(s)                               : 6 channels

    Channel layout                           : L R C LFE Ls Rs

    Sampling rate                            : 48.0 kHz

    Frame rate                               : 31.250 FPS (1536 SPF)

    Compression mode                         : Lossy

    Stream size                              : 321 MiB (9%)

    Title                                    : Surround

    Language                                 : English

    Service kind                             : Complete Main

    Default                                  : No

    Forced                                   : No

    Menu

    00:00:00.000                             : :Chapter 1

    00:00:09.426                             : :Chapter 2

    00:13:30.184                             : :Chapter 3

    00:25:13.387                             : :Chapter 4

    00:33:07.652                             : :Chapter 5

    00:42:37.930                             : :Chapter 6

    00:47:45.905                             : :Chapter 7

    00:56:29.595                             : :Chapter 8

    01:06:05.336                             : :Chapter 9

    01:15:38.451                             : :Chapter 10

    01:20:07.803                             : :Chapter 11

    01:30:27.297                             : :Chapter 12

    01:36:56.144                             : :Chapter 13**


    More at ibit.to
    And ibit.uno
    And ibit.am
    And ibit.ws

    Reviews

    Spoilers for _Memento_. _Final rating:★★ - Had some things that appeal to me, but a poor finished product._

    Comments

    Files

    65746545tyf.jpg 73 kB
    Doppia Colpa-Spinning Man (2018) ITA-ENG Ac3 5.1 BDRip 1080p H264 [ArMor].mkv 3.4 GB
    Doppia.Colpa.2018.Bd_track2_ita.sup 175 kB
    Doppia.Colpa.2018.Bd_track3_ita.sup 24 MB

    Stream

    Downloading Seeding Doppia Colpa-Spinning Man (2018) ITA-ENG Ac3 5.1 BDRip 1080p H264 [ArMor] from to 0 peers.
    of
    0 b/s / ↗0 b/s