• 0
  • 0
  • done
Sponsored Download
  • Cold Pursuit (720p HD).m4v
  • 4.3 GB
  • pk5360114
  • Cold Pursuit 720p m4v
  • Видео HD

Description

Снегоуборщик / Cold Pursuit

«Он убирает снег и… наркодилеров»

image 6.089 / 10 image 6.30 / 10


image

Год выпуска : 2019

Страна : Великобритания, Норвегия, Канада, США, Франция

Жанр : Боевик, триллер, драма, криминал

Продолжительность : 01:59:00

Перевод : Дублированный (iTunes)

Оригинальная аудиодорожка : Есть

Cубтитры : Русские, Английские

Режиссёр : Ханс Петтер Муланд

Сценарий : Фрэнк Болдуин, Ким Фупц Окесон

Продюсер : Финн Гьердрум, Майкл Шамберг, Амит Шукла

Оператор : Филип Огаард

Композитор : Джордж Фентон

Художник : Ёрген Стангебай Ларсен, Кенделл Эллиотт, Гвендолин Маргетсон

Монтаж : Николай Монберг

В ролях : Лиам Нисон, Лора Дерн, Эмми Россам, Том Бейтман, Уильям Форсайт, Джулия Джонс, Майкл Нисон, Майкл Эклунд, Брэдли Страйкер, Уэсли МакИннес

Сборы в России : $587 692

Мировая премьера : 7 февраля 2019

Премьера (РФ) : 7 февраля 2019, «MEGOGO Distribution»

Цифровой релиз : 6 мая 2019, «Megogo Distribution»

Описание : Мистер Коксман — примерный семьянин и уважаемый гражданин, размеренная жизнь которого заканчивается, когда наркоторговцы убивают его сына. В поисках справедливости он с ледяным хладнокровием начинает изощренно убирать бандитов одного за другим.


Качество исходника : BDRemux (TeamHD)

Качество : BDRip

Тип : HD (720p)

Контейнер : M4V

Видео : H.264, 1280x544, 2.35:1, 3 500 Kbps, 23.976 (24000/1001) fps

Аудио 1 : Русский/Дублированный (iTunes), AAC LC / 2.0 / 160 Kbps / 48.0 KHz

Аудио 2 : Английский/Оригинальная дорожка , AAC LC / 2.0 / 160 Kbps / 48.0 KHz

Аудио 3 : Русский/Дублированный (iTunes), AC-3 / 5.1 / 384 Kbps / 48.0 KHz

Аудио 4 : Английский/Оригинальная дорожка , AC-3 / 5.1 / 640 Kbps / 48.0 KHz

Субтитры 1 : Русские полные

Субтитры 2 : Английские полные


iTunes Meta Tags

Код:

Sort Name: Cold Pursuit
XID: Apple:vendor_id:2019-1033233
contentID: 1451384896
Copyright: © 2019 Studiocanal SAS. All Rights Reserved
Screenwriters: Фрэнк Болдуин, Ким Фупц Окесон
Producers: Финн Гьердрум, Майкл Шамберг, Амит Шукла
Director: Ханс Петтер Муланд
Cast: Лиам Нисон, Лора Дерн, Эмми Россам, Том Бейтман, Уильям Форсайт, Джулия Джонс, Майкл Нисон, Майкл Эклунд, Брэдли Страйкер, Уэсли МакИннес
Studio: Summit
Rating: 5
Long Description: Мистер Коксман — примерный семьянин и уважаемый гражданин, размеренная жизнь которого заканчивается, когда наркоторговцы убивают его сына. В поисках справедливости он с ледяным хладнокровием начинает изощренно убирать бандитов одного за другим.
Description: Мистер Коксман — примерный семьянин и уважаемый гражданин, размеренная жизнь которого заканчивается, когда наркоторговцы убивают его сына. В поисках справедливости он с ледяным хладнокровием начинает изощренно убирать бандитов одного за другим.
Release Date: 2019-02-08T08:00:00Z
Genre: Action & Adventure
Artist: Hans Petter Moland
Name: Cold Pursuit

MediaInfo

Код:

General
Complete name                            : /Users/imac/HandBrake/Cold Pursuit (720p HD).m4v
Format                                   : MPEG-4
Codec ID                                 : M4V  (M4V /M4A /mp42/isom)
File size                                : 4.02 GiB
Duration                                 : 1h 59mn
Overall bit rate mode                    : Variable
Overall bit rate                         : 4 840 Kbps
Movie name                               : Cold Pursuit
Performer                                : Hans Petter Moland
Director                                 : Ханс Петтер Муланд
Actor                                    : Лиам Нисон / Лора Дерн / Эмми Россам / Том Бейтман / Уильям Форсайт / Джулия Джонс / Майкл Нисон / Майкл Эклунд / Брэдли Страйкер / Уэсли МакИннес
Screenplay by                            : Фрэнк Болдуин / Ким Фупц Окесон
Producer                                 : Финн Гьердрум / Майкл Шамберг / Амит Шукла
Production studio                        : Summit
Genre                                    : Action & Adventure
ContentType                              : Short Film
Description                              : Мистер Коксман — примерный семьянин и уважаемый гражданин, размеренная жизнь которого заканчивается, когда наркоторговцы убивают его сына. В поисках справедливости он с ледяным хладнокровием начинает изощренно убирать бандитов одного за другим.
Recorded date                            : UTC 2019-02-08 08:00:00
Encoded date                             : UTC 2019-05-13 21:23:20
Tagged date                              : UTC 2019-05-13 21:24:57
Copyright                                : © 2019 Studiocanal SAS. All Rights Reserved
Cover                                    : Yes
Rating                                   : None
Title/Sort                               : Cold Pursuit
LongDescription                          : Мистер Коксман — примерный семьянин и уважаемый гражданин, размеренная жизнь которого заканчивается, когда наркоторговцы убивают его сына. В поисках справедливости он с ледяным хладнокровием начинает изощренно убирать бандитов одного за другим.
HDVideo                                  : Yes
AppleStoreCatalogID                      : 1451384896
Vendor                                   : Apple:vendor_id:2019-1033233
ContentRating                            : mpaa|R|400|

Video #1
ID                                       : 1
Format                                   : AVC
Format/Info                              : Advanced Video Codec
Format profile                           : High@L3.1
Format settings                          : 3 Ref Frames
Format settings, CABAC                   : No
Format settings, ReFrames                : 3 frames
Codec ID                                 : avc1
Codec ID/Info                            : Advanced Video Coding
Duration                                 : 1h 59mn
Bit rate                                 : 3 500 Kbps
Width                                    : 1 280 pixels
Height                                   : 544 pixels
Display aspect ratio                     : 2.35:1
Frame rate mode                          : Variable
Frame rate                               : 23.976 (24000/1001) fps
Minimum frame rate                       : 23.974 fps
Maximum frame rate                       : 23.981 fps
Color space                              : YUV
Chroma subsampling                       : 4:2:0
Bit depth                                : 8 bits
Scan type                                : Progressive
Bits/(Pixel*Frame)                       : 0.210
Stream size                              : 2.90 GiB (72%)
Title                                    : Main Program
Writing library                          : x264 core 157 r2935 545de2f
Encoding settings                        : cabac=0 / ref=3 / deblock=1:-3:-3 / analyse=0x3:0x113 / me=umh / subme=9 / psy=1 / psyrd=1.00:0.15 / mixedref=1 / merange=32 / chromame=1 / trellis=0 / 8x8dct=1 / cqm=0 / deadzone=21,11 / fastpskip=0 / chromaqpoffset=-2 / threads=17 / lookaheadthreads=1 / slicedthreads=0 / nr=0 / decimate=0 / interlaced=0 / bluraycompat=0 / constrainedintra=0 / bframes=3 / bpyramid=0 / badapt=2 / bbias=0 / direct=1 / weightb=0 / opengop=0 / weightp=0 / keyint=240 / keyintmin=24 / scenecut=40 / intrarefresh=0 / rclookahead=40 / rc=2pass / mbtree=1 / bitrate=3500 / ratetol=1.0 / qcomp=0.65 / qpmin=0 / qpmax=69 / qpstep=4 / cplxblur=20.0 / qblur=0.5 / vbvmaxrate=9500 / vbvbufsize=9500 / nalhrd=none / filler=0 / ipratio=1.40 / aq=1:1.10
Language                                 : English
Encoded date                             : UTC 2019-05-13 21:23:20
Tagged date                              : UTC 2019-05-13 21:23:30
Color range                              : Limited
Color primaries                          : BT.709
Transfer characteristics                 : BT.709
Matrix coefficients                      : BT.709
Menus                                    : 8,9
Codec configuration box                  : avcC

Video #2
ID                                       : 9
Format                                   : JPEG
Codec ID                                 : jpeg
Duration                                 : 1h 59mn
Bit rate mode                            : Variable
Bit rate                                 : 356 bps
Width                                    : 640 pixels
Height                                   : 272 pixels
Display aspect ratio                     : 2.35:1
Frame rate mode                          : Variable
Frame rate                               : 0.002 fps
Minimum frame rate                       : 0.001 fps
Maximum frame rate                       : 0.007 fps
Color space                              : YUV
Chroma subsampling                       : 4:2:0
Bit depth                                : 8 bits
Compression mode                         : Lossy
Bits/(Pixel*Frame)                       : 1.023
Stream size                              : 348 KiB (0%)
Title                                    : Chapter Images
Language                                 : English
Default                                  : No
Encoded date                             : UTC 2019-05-13 21:24:30
Tagged date                              : UTC 2019-05-13 21:24:30
Menu For                                 : 1
ColorSpace_ICC                           : RGB

Audio #1
ID                                       : 2
Format                                   : AAC LC
Format/Info                              : Advanced Audio Codec Low Complexity
Codec ID                                 : mp4a-40-2
Duration                                 : 1h 58mn
Source duration                          : 1h 58mn
Bit rate mode                            : Variable
Bit rate                                 : 157 Kbps
Maximum bit rate                         : 228 Kbps
Channel(s)                               : 2 channels
Channel layout                           : L R
Sampling rate                            : 48.0 KHz
Frame rate                               : 46.875 fps (1024 SPF)
Compression mode                         : Lossy
Stream size                              : 133 MiB (3%)
Source stream size                       : 133 MiB (3%)
Title                                    : Russian Stereo
Language                                 : Russian
Default                                  : Yes
Alternate group                          : 1
Encoded date                             : UTC 2019-05-13 21:23:20
Tagged date                              : UTC 2019-05-13 21:24:26
Fallback From                            : 4

Audio #2
ID                                       : 3
Format                                   : AAC LC
Format/Info                              : Advanced Audio Codec Low Complexity
Codec ID                                 : mp4a-40-2
Duration                                 : 1h 59mn
Source duration                          : 1h 59mn
Bit rate mode                            : Variable
Bit rate                                 : 157 Kbps
Maximum bit rate                         : 242 Kbps
Channel(s)                               : 2 channels
Channel layout                           : L R
Sampling rate                            : 48.0 KHz
Frame rate                               : 46.875 fps (1024 SPF)
Compression mode                         : Lossy
Stream size                              : 134 MiB (3%)
Source stream size                       : 134 MiB (3%)
Title                                    : English Stereo
Language                                 : English
Default                                  : No
Alternate group                          : 1
Encoded date                             : UTC 2019-05-13 21:23:20
Tagged date                              : UTC 2019-05-13 21:24:26
Fallback From                            : 5

Audio #3
ID                                       : 4
Format                                   : AC-3
Format/Info                              : Audio Coding 3
Commercial name                          : Dolby Digital
Codec ID                                 : ac-3
Duration                                 : 1h 58mn
Bit rate mode                            : Constant
Bit rate                                 : 384 Kbps
Channel(s)                               : 6 channels
Channel layout                           : L R C LFE Ls Rs
Sampling rate                            : 48.0 KHz
Frame rate                               : 31.250 fps (1536 SPF)
Bit depth                                : 16 bits
Compression mode                         : Lossy
Stream size                              : 327 MiB (8%)
Title                                    : Russian DD 5.1
Language                                 : Russian
Service kind                             : Complete Main
Default                                  : Inherited From: 2
Alternate group                          : 1
Encoded date                             : UTC 2019-05-13 21:23:20
Tagged date                              : UTC 2019-05-13 21:24:26
Fallback To                              : 2

Audio #4
ID                                       : 5
Format                                   : AC-3
Format/Info                              : Audio Coding 3
Commercial name                          : Dolby Digital
Codec ID                                 : ac-3
Duration                                 : 1h 59mn
Bit rate mode                            : Constant
Bit rate                                 : 640 Kbps
Channel(s)                               : 6 channels
Channel layout                           : L R C LFE Ls Rs
Sampling rate                            : 48.0 KHz
Frame rate                               : 31.250 fps (1536 SPF)
Bit depth                                : 16 bits
Compression mode                         : Lossy
Stream size                              : 545 MiB (13%)
Title                                    : English DD 5.1
Language                                 : English
Service kind                             : Complete Main
Default                                  : No
Alternate group                          : 1
Encoded date                             : UTC 2019-05-13 21:23:20
Tagged date                              : UTC 2019-05-13 21:24:26
Fallback To                              : 3

Text #1
ID                                       : 6
Format                                   : Timed Text
Muxing mode                              : sbtl
Codec ID                                 : tx3g
Duration                                 : 1h 50mn
Bit rate mode                            : Variable
Bit rate                                 : 66 bps
Stream size                              : 53.3 KiB (0%)
Title                                    : Russian full
Language                                 : Russian
Default                                  : Yes
Forced                                   : No
Alternate group                          : 2
Encoded date                             : UTC 2019-05-13 21:23:20
Tagged date                              : UTC 2019-05-13 21:24:22

Text #2
ID                                       : 7
Format                                   : Timed Text
Muxing mode                              : sbtl
Codec ID                                 : tx3g
Duration                                 : 1h 50mn
Bit rate mode                            : Variable
Bit rate                                 : 44 bps
Stream size                              : 35.7 KiB (0%)
Title                                    : English full
Language                                 : English
Default                                  : No
Forced                                   : No
Alternate group                          : 2
Encoded date                             : UTC 2019-05-13 21:23:20
Tagged date                              : UTC 2019-05-13 21:24:21

Menu #1
00:00:00.000                             : Chapter 1
00:07:26.947                             : Chapter 2
00:13:18.756                             : Chapter 3
00:21:35.211                             : Chapter 4
00:29:35.649                             : Chapter 5
00:38:18.880                             : Chapter 6
00:45:11.876                             : Chapter 7
00:53:08.310                             : Chapter 8
01:01:23.513                             : Chapter 9
01:05:46.359                             : Chapter 10
01:14:04.857                             : Chapter 11
01:22:21.186                             : Chapter 12
01:31:40.954                             : Chapter 13
01:38:46.879                             : Chapter 14
01:45:20.940                             : Chapter 15
01:47:43.540                             : Chapter 16

Menu #2
ID                                       : 8
Codec ID                                 : text
Duration                                 : 1h 59mn
Language                                 : English
Encoded date                             : UTC 2019-05-13 21:24:26
Tagged date                              : UTC 2019-05-13 21:24:26
Menu For                                 : 1
00:00:00.000                             : Chapter 1
00:07:26.947                             : Chapter 2
00:13:18.756                             : Chapter 3
00:21:35.211                             : Chapter 4
00:29:35.649                             : Chapter 5
00:38:18.880                             : Chapter 6
00:45:11.876                             : Chapter 7
00:53:08.310                             : Chapter 8
01:01:23.513                             : Chapter 9
01:05:46.359                             : Chapter 10
01:14:04.857                             : Chapter 11
01:22:21.186                             : Chapter 12
01:31:40.954                             : Chapter 13
01:38:46.879                             : Chapter 14
01:45:20.940                             : Chapter 15
01:47:43.540                             : Chapter 16

x264 лог

Код:

x264 [info]: frame I:1584  Avg QP:13.27  size:117835
x264 [info]: frame P:57248 Avg QP:15.61  size: 33337
x264 [info]: frame B:112360 Avg QP:17.41  size:  9102
x264 [info]: consecutive B-frames:  3.2% 18.2% 29.1% 49.6%
x264 [info]: mb I  I16..4: 10.2% 57.6% 32.2%
x264 [info]: mb P  I16..4:  1.5%  4.6%  1.9%  P16..4: 42.1% 28.6% 11.8%  0.0%  0.0%    skip: 9.5%
x264 [info]: mb B  I16..4:  0.1%  0.6%  0.2%  B16..8: 41.9% 12.6%  2.0%  direct: 4.0%  skip:38.5%  L0:42.1% L1:49.8% BI: 8.0%
x264 [info]: 8x8 transform intra:58.1% inter:41.0%
x264 [info]: coded y,uvDC,uvAC intra: 83.0% 83.0% 68.9% inter: 25.0% 22.0% 14.3%
x264 [info]: i16 v,h,dc,p: 53% 18%  5% 24%
x264 [info]: i8 v,h,dc,ddl,ddr,vr,hd,vl,hu:  9%  8%  7% 11% 15% 14% 14% 11% 11%
x264 [info]: i4 v,h,dc,ddl,ddr,vr,hd,vl,hu:  9% 11%  4% 12% 17% 15% 14% 10%  9%
x264 [info]: i8c dc,h,v,p: 55% 16% 18% 11%
x264 [info]: ref P L0: 68.2% 18.7% 13.1%
x264 [info]: ref B L0: 75.5% 24.5%
x264 [info]: kb/s:3493.29

Скриншоты

image image image image image image


imageimageimageimage
Релиз подготовлен для просмотра на Apple TV, iPad, iPhone, iPod Touch.
Для просмотра данного релиза на компьютере с ОС Windows рекомендуется использовать VLC media player


More at ibit.to
And ibit.uno
And ibit.ws

Comments

Files

Cold Pursuit (720p HD).m4v 4.3 GB

Stream

Downloading Seeding Cold Pursuit (720p HD).m4v from to 0 peers.
of
0 b/s / ↗0 b/s