• -
  • -
  • done
Download
  • Cesar Wagner
  • 6.2 GB
  • ralf124c41+
  • Cesar Wagner
  • Европейские сериалы

Description

image

Сезар Вагнер

César Wagner


image

Год выпуска : 2020-2022

Страна : Франция, Бельгия

Жанр : детектив, драма

Продолжительность : 01:30:00

Перевод : Субтитры (перевод компании Hiventy)

Режиссёр : Антуан Гарсо, Магали Ришар-Серрано

В ролях : Жиль Альма (César Wagner) , Оливия Кот (Dr Elise Beaumont) , Корали Руссье (Lieutenant Léa Saskevitch) , Суфиан Герраб (Lieutenant Farid Belladj) , Этьенн Диало (Lieutenant Grégoire Rollot) , Жозефина ле Мо (Commissaire Frédérique Koehler) , Фанни Коттансон (Marie-Ange Wagner) , Самюэль Лабарт (Christian Haas) , Марилин Канто (Joséphine Stern) , Эрик Савен (Luc Thomassot) , Бруно Тодескини (Peter Breck) , Офелия Колб (Héloïse Wasserman)

Описание : Ипохондрика капитана полиции Сезара Вагнера переводят в Страсбург, его родной город, где мэром является не кто иной, как его собственная мать. Он пытается включиться в работу при поддержке патологоанатома, экстравагантной и раскованной Элизы Бомон.

Доп. информация : TV5MONDE Europe image image image image

Качество : DVB

Формат : MKV

Видео : MPEG Video 2, [email protected] (16:9), 25 fps, ~3060 kbps avg, 0.295 bit/pixel

Аудио : MPEG Audio 2, 2 ch, 48 kHz, 192.00 kbps - французский

Субтитры : русские, немецкие, нидерландские, румынские, испанские - prerendered (IDX+SUB), английские, французские - softsub (SRT)

Реклама : отсутствует

Список серий:

01. Пилот / Pilote (César Wagner) (2019) 02. Кровь и вода / Sang et eaux (2020) 03. Мрачный дизайн / Sombres desseins (2020)

MediaInfo

`
General
Unique ID : 207474819647382836892268463912842822076 (0x9C1632609A031389E419120B38F201BC)
Complete name : [apreder]CesarWagners.1ep.01(2019)DVB.mkv
Format : Matroska
Format version : Version 4
File size : 2.09 GiB
Duration : 1 h 30 min
Overall bit rate mode : Variable
Overall bit rate : 3 318 kb/s
Movie name : Cesar Wagner
Released date : 2020-01-15
Encoded date : UTC 2022-10-23 07:48:11
Writing application : mkvmerge v71.1.0 ('Fortitude') 64-bit
Writing library : libebml v1.4.4 + libmatroska v1.7.1
Cover : Yes
Attachments : cover.jpg / small
cover.jpg
ACTOR : Gil Alma, Olivia Cote, Coralie Russier
DIRECTOR : Antoine Garceau
GENRE : Crime, Drama
IMDB : tt11241956
KEYWORDS : rutracker.org
LAW_RATING : 16+
SUMMARY : s.1, ep.01 Pilote

Video
ID : 1
Format : MPEG Video
Format version : Version 2
Format profile : [email protected]
Format settings : BVOP
Format settings, BVOP : Yes
Format settings, Matrix : Default
Format settings, GOP : M=4, N=12
Format settings, picture structure : Frame
Codec ID : V_MPEG2
Codec ID/Info : MPEG 1 or 2 Video
Duration : 1 h 30 min
Bit rate mode : Variable
Bit rate : 3 060 kb/s
Width : 720 pixels
Height : 576 pixels
Display aspect ratio : 16:9
Frame rate mode : Constant
Frame rate : 25.000 FPS
Standard : PAL
Color space : YUV
Chroma subsampling : 4:2:0
Bit depth : 8 bits
Scan type : Interlaced
Scan order : Top Field First
Compression mode : Lossy
Bits/(Pixel*Frame) : 0.295
Time code of first frame : 00:00:00:00
Time code source : Group of pictures header
GOP, Open/Closed : Open
GOP, Open/Closed of first frame : Closed
Stream size : 1.93 GiB (92%)
Default : Yes
Forced : No

Audio
ID : 2
Format : MPEG Audio
Format version : Version 1
Format profile : Layer 2
Format settings : Joint stereo / Intensity Stereo + MS Stereo
Codec ID : A_MPEG/L2
Codec ID/Hint : MP2
Duration : 1 h 30 min
Bit rate mode : Constant
Bit rate : 192 kb/s
Channel(s) : 2 channels
Sampling rate : 48.0 kHz
Compression mode : Lossy
Stream size : 124 MiB (6%)
Language : French
Default : Yes
Forced : No

Text #1
ID : 3
Format : VobSub
Codec ID : S_VOBSUB
Codec ID/Info : Picture based subsrc format used on DVDs
Language : Russian
Default : Yes
Forced : No

Text #2
ID : 4
Format : UTF-8
Codec ID : S_TEXT/UTF8
Codec ID/Info : UTF-8 Plain Text
Language : English
Default : No
Forced : No

Text #3
ID : 5
Format : UTF-8
Codec ID : S_TEXT/UTF8
Codec ID/Info : UTF-8 Plain Text
Language : French
Default : No
Forced : No

Text #4
ID : 6
Format : VobSub
Codec ID : S_VOBSUB
Codec ID/Info : Picture based subsrc format used on DVDs
Language : German
Default : No
Forced : No

Text #5
ID : 7
Format : VobSub
Codec ID : S_VOBSUB
Codec ID/Info : Picture based subsrc format used on DVDs
Language : Dutch
Default : No
Forced : No

Text #6
ID : 8
Format : VobSub
Codec ID : S_VOBSUB
Codec ID/Info : Picture based subsrc format used on DVDs
Language : Romanian
Default : No
Forced : No

Text #7
ID : 9
Format : VobSub
Codec ID : S_VOBSUB
Codec ID/Info : Picture based subsrc format used on DVDs
Language : Spanish
Default : No
Forced : No
`

Скриншоты

image image image image image

image image image image image

Резервные скриншоты

image image image image image

image image image image image


Внимание! Раздача ведётся путём добавления новых выпусков

Внимание! Раздача ведётся путём добавления новых выпусков; при каждом добавлении создаётся новый торрент. Чтобы начать докачку нового выпуска, пользователям необходимо сделать следующее:
(1) остановить скачивание,
(2) удалить старый торрент у себя из клиента (старые серии удалять не надо),
(3) скачать новый торрент и запустить его у себя в клиенте вместо старого, при этом указать клиенту путь в старую папку куда и должно происходить скачивание новых выпусков.

Ваш клиент при этом должен произвести хеширование (проверку) старой папки (если не производит сам - помогите ему сделать это). В результате он будет докачивать только те выпуски, которых у Вас ещё нет. Старые выпуски при этом не удаляются, а продолжают раздаваться!

Eсли Вы уже удалили старые выпуски, то предотвратить их повторную закачку можно, сняв галочки в соответствующих местах при запуске нового торрента. По возможности, желательно не удалять старые выпуски как можно дольше, чтобы релизёр не только продолжал раздавать старые выпуски, но и смог сконцентрироваться на новых.


image

[5'581]


More at ibit.to
And ibit.uno
And ibit.am
And ibit.ws

Comments

1 month ago

Ох уж эти патологоанатомы. Последнее время никак не дают покоя французским кинематографистам))

1 month ago

Добавлен эпизод 2.

1 month ago

ralf124c41+ Цитата: Сезар Вагнер / Cesar Wagner / The Wagner Method / Сезон: 1 / Серии: 1-2 из 7 (Антуан Гарсо, Магали Ришар-Серрано) [2020 - 2022, Франция, Бельгия, детектив, драма, DVB] Rus Sub (Hiventy) В 1 сезоне не 5 серий? 5-ая в 2021 году была снята.

1 month ago

Celta88 писал(а): В 1 сезоне не 5 серий? 5-ая в 2021 году была снята. В Wikipedia указаны еще две серии, снятые в 2022 году. 6-я серия снята и только что была показана в Бельгии [25.10.2022]. 7-я серия снята, но показа еще не было. Выход серий идет без разделения на сезоны. скрытый текст

1 month ago

тут указано, что 2 сезона в сериале

1 month ago

Добавлен эпизод 3.

Files

Stream

Downloading Seeding Cesar Wagner from to 0 peers.
of
0 b/s / ↗0 b/s