• -
  • -
  • done
Sponsored Downloadondemand_video
  • Cendrillon ou la pantoufle (1907).mkv
  • 236 MB
  • паzанка
  • Cendrillon pantoufle 1907 mkv
  • Зарубежное кино
60%

Cinderella (1907)

This is a compact telling of the Cinderella fairy tale and the film is elaborately staged. It’s more cinematic than a lot of the other films of this time, using some real locations and three-dimensional sets rather than simple painted backdrops. There’s an impressive effect where a wall blows in to reveal what is happening elsewhere in the story world. I found the film a little dull overall though due to the overly familiar story.

French

Description

Золушка | Cendrillon


image

Страна : Франция

Жанр : Немое кино, короткометражка

Год выпуска : 1907

Продолжительность : 00:15:13

Перевод : Субтитры (автор larisa_7)

Субтитры : русские

Оригинальная аудиодорожка : музыкальное сопровождение

Режиссер : Альбер Капеллани / Léonce Perret

В ролях : Луиз Лагранж

Описание : : Милая девочка обязана ежедневно выполнять поручения мачехи и её надоедливых дочек. Хозяева дома придумывают для своей служанки всё более изощрённые задания. Лишь вера в чудо заставляла прекрасную героиню открывать глаза и улыбаться новому дню. И вот однажды по стечению обстоятельств Золушка оказалась на королевском балу, где приглянулась не кому-нибудь, а самому принцу!

До этого было создано еще два фильма о Золушке, в 1898 году вышел короткометражный фильм Джорджа Альберта Смита. Этот фильм не сохранился до наших дней. А в 1899 году вышел короткометражный фильм Жоржа Мельеса

Доп. информация : За перевод и подготовку релиза спасибо larisa_7.


| IMDb | КиноПоиск | Sample |


Качество видео : DVDRip-AVC

Формат видео : MKV

Видео : MPEG4 Video (H264), 720x534 (1.438), 1900 Kbps, 25fps

Аудио : AC3, 2.0, 48 kHz, 160 kbps, 16 bit

Формат субтитров : softsub (SRT)

MediaInfo

`General
Unique ID : 231239246563875669519242935252262425783 (0xADF70F15DF3F46B9B37A33A94D6194B7)
Complete name : F:ФильмыCendrillon ou la pantoufle (1907).mkv
Format : Matroska
Format version : Version 2
File size : 225 MiB
Duration : 15 min 13 s
Overall bit rate : 2 065 kb/s
Encoded date : UTC 2019-05-30 11:50:56
Writing application : mkvmerge v4.0.0 ('The Stars were mine') сборка от Jun 6 2010 16:18:42
Writing library : libebml v1.0.0 + libmatroska v1.0.0

Video
ID : 1
Format : AVC
Format/Info : Advanced Video Codec
Format profile : [email protected]
Format settings : CABAC / 5 Ref Frames
Format settings, CABAC : Yes
Format settings, Reference fra : 5 frames
Codec ID : VMPEG4/ISO/AVC
Duration : 15 min 13 s
Bit rate : 1 900 kb/s
Width : 720 pixels
Height : 534 pixels
Display aspect ratio : 1.438
Frame rate mode : Constant
Frame rate : 16.000 FPS
Color space : YUV
Chroma subsampling : 4:2:0
Bit depth : 8 bits
Scan type : Progressive
Bits/(Pixel*Frame) : 0.309
Stream size : 203 MiB (90%)
Writing library : x264 core 144 r2525 40bb568
Encoding settings : cabac=1 / ref=5 / deblock=1:1:1 / analyse=0x3:0x133 / me=umh / subme=10 / psy=1 / psy
rd=0.40:0.00 / mixedref=1 / merange=32 / chromame=1 / trellis=2 / 8x8dct=1 / cqm=0 / deadzone=21,11 / fastpskip=1 / chromaqpoffset=-2 / threads=7 / lookaheadthreads=1 / slicedthreads=0 / nr=0 / decimate=1 / interlaced=0 / bluraycompat=0 / constrainedintra=0 / bframes=16 / bpyramid=2 / badapt=2 / bbias=0 / direct=3 / weightb=1 / opengop=0 / weightp=2 / keyint=160 / keyintmin=16 / scenecut=40 / intrarefresh=0 / rclookahead=80 / rc=2pass / mbtree=0 / bitrate=1900 / ratetol=3.0 / qcomp=0.70 / qpmin=0 / qpmax=69 / qpstep=4 / cplxblur=20.0 / qblur=0.5 / vbvmaxrate=25000 / vbvbufsize=20000 / nalhrd=none / filler=0 / ipratio=1.40 / pbratio=1.30 / aq=1:0.60
Language : English
Default : No
Forced : No

Audio
ID : 2
Format : AC-3
Format/Info : Audio Coding 3
Commercial name : Dolby Digital
Codec ID : A_AC3
Duration : 15 min 13 s
Bit rate mode : Constant
Bit rate : 160 kb/s
Channel(s) : 2 channels
Channel layout : L R
Sampling rate : 48.0 kHz
Frame rate : 31.250 FPS (1536 SPF)
Bit depth : 16 bits
Compression mode : Lossy
Stream size : 17.4 MiB (8%)
Language : English
Service kind : Complete Main
Default : No
Forced : No

Text
ID : 3
Format : UTF-8
Codec ID : S_TEXT/UTF8
Codec ID/Info : UTF-8 Plain Text
Default : Yes
Forced : No `

Пример субтитов

`1
00:00:00,040 --> 00:00:03,878
ЗОЛУШКА ИЛИ ХРУСТАЛЬНАЯ ТУФЕЛЬКА

2
00:00:04,080 --> 00:00:07,514
Приглашение на бал.

3
00:04:29,720 --> 00:04:32,930
Возврашение в полночь.

4
00:07:48,820 --> 00:07:52,599
Потеря туфельки.

5
00:08:31,520 --> 00:08:34,855
Поиски принцессы. `

Скриншот c названием фильма:

image

Скриншоты

image imageimage image


More at ibit.to
And ibit.uno
And ibit.ws

Reviews

Comments

2 months ago

спасибо

Files

Cendrillon ou la pantoufle (1907).mkv 236 MB

Stream

Downloading Seeding Cendrillon ou la pantoufle (1907).mkv from to 0 peers.
of
0 b/s / ↗0 b/s