• -
  • -
  • done
  • Brkn Love - 2020 - Brkn Love [FLAC]
  • 266 MB
  • andromaxvic
  • Brkn Love 2020 FLAC
  • Зарубежный Rock

Description

Brkn Love - Brkn Love


image

Жанр : Alt.Rock/Hard Rock

Носитель : WEB

Год издания : 2020-02-14

Издатель-лейбл : Spinefarm Records UK

Страна исполнителя : Canada

Аудиокодек : FLAC (*.flac)

Тип рипа : tracks

Битрейт аудио : lossless

Продолжительность : 00:36:09

Источник : интернет

Наличие сканов : нет

Треклист :

01.

I Can’t Lie

(4:10)

02.

I See Red

(3:15)

03.

Shot Down

(2:48)

04.

Flies In The Honey

(3:07)

05.

Papercuts

(3:06)

06.

Seventeen

(3:18)

07.

Toxic Twin

(3:23)

08.

Complicated

(3:11)

09.

Oxygen

(3:11)

10.

Don’t Panic

(3:12)

11.

In Your Hands

(3:28)

auCDtect

`CUE Corrector v. 8.3.6 / b. 964 (Feb. 13, 2020)
————————————————————————————————————————————————————————————————————————
Brkn Love / Brkn Love

Folder: Brkn Love - 2020 - Brkn Love [FLAC]
Audio files:
01 I Can’t Lie.flac [04:10.213; FLAC • 950 kbps • 16 bit 44100 Hz • stereo; 28,35 MB (29 729 765 B)]
02 I See Red.flac [03:14.787; FLAC • 972 kbps • 16 bit 44100 Hz • stereo; 22,59 MB (23 687 767 B)]
03 Shot Down.flac [02:47.680; FLAC • 973 kbps • 16 bit 44100 Hz • stereo; 19,46 MB (20 409 510 B)]
04 Flies In The Honey.flac [03:06.587; FLAC • 966 kbps • 16 bit 44100 Hz • stereo; 21,49 MB (22 537 104 B)]
05 Papercuts.flac [03:05.733; FLAC • 1046 kbps • 16 bit 44100 Hz • stereo; 23,17 MB (24 292 596 B)]
06 Seventeen.flac [03:17.667; FLAC • 1010 kbps • 16 bit 44100 Hz • stereo; 23,80 MB (24 955 488 B)]
07 Toxic Twin.flac [03:23.267; FLAC • 1047 kbps • 16 bit 44100 Hz • stereo; 25,39 MB (26 626 071 B)]
08 Complicated.flac [03:10.933; FLAC • 924 kbps • 16 bit 44100 Hz • stereo; 21,03 MB (22 055 440 B)]
09 Oxygen.flac [03:10.533; FLAC • 929 kbps • 16 bit 44100 Hz • stereo; 21,12 MB (22 146 587 B)]
10 Don’t Panic.flac [03:11.733; FLAC • 966 kbps • 16 bit 44100 Hz • stereo; 22,09 MB (23 159 155 B)]
11 In Your Hands.flac [03:27.907; FLAC • 1034 kbps • 16 bit 44100 Hz • stereo; 25,64 MB (26 884 730 B)]

Accuracy: -m3

File 01 I Can’t Lie - 100% CDDA [04:10:16]
File 02 I See Red - 100% CDDA [03:14:59]
File 03 Shot Down - 100% CDDA [02:47:51]
File 04 Flies In The Honey - 100% CDDA [03:06:44]
File 05 Papercuts - 100% CDDA [03:05:55]
File 06 Seventeen - 100% CDDA [03:17:50]
File 07 Toxic Twin - 99% CDDA [03:23:20]
File 08 Complicated - 100% CDDA [03:10:70]
File 09 Oxygen - 100% CDDA [03:10:40]
File 10 Don’t Panic - 100% CDDA [03:11:55]
File 11 In Your Hands - 100% CDDA [03:27:68]
————— Summary: —————
These tracks looks like CDDA with probability 100%.
————————————————————————————————————————————————————————————————————————

ANALYZER:
auCDtect: CD records authenticity detector, version 0.8.2
Copyright (c) 2004 Oleg Berngardt. All rights reserved.
Copyright (c) 2004 Alexander Djourik. All rights reserved.

Time elapsed: 27.2 s
Log created at February 14, 2020 05:24:41

=== 36C78BD7629045DFC5BA0F358E39F50CB86967C2A426F988F85CE678BA9073CD === `

CUETools

``

DR

`foobar2000 1.5.1 / Замер динамического диапазона (DR) 1.1.1
Дата отчёта: 2020-02-14 05:18:28


Анализ: BRKN LOVE / BRKN LOVE
DR Пики RMS Продолжительность трека

DR5 0.00 дБ -6.67 дБ 4:10 01-I Can’t Lie
DR5 0.00 дБ -6.68 дБ 3:15 02-I See Red
DR6 0.00 дБ -6.80 дБ 2:48 03-Shot Down
DR6 0.00 дБ -7.48 дБ 3:07 04-Flies In The Honey
DR5 0.00 дБ -6.25 дБ 3:06 05-Papercuts
DR6 0.00 дБ -7.47 дБ 3:18 06-Seventeen
DR5 0.00 дБ -7.42 дБ 3:23 07-Toxic Twin
DR6 0.00 дБ -7.55 дБ 3:11 08-Complicated
DR5 0.00 дБ -6.98 дБ 3:11 09-Oxygen
DR5 0.00 дБ -6.78 дБ 3:12 10-Don’t Panic

DR5 0.00 дБ -6.26 дБ 3:28 11-In Your Hands

Количество треков: 11
Реальные значения DR: DR5

Частота: 44100 Гц
Каналов: 2
Разрядность: 16
Битрейт: 1028 кбит/с
Кодек: FLAC
================================================================================ `


More at ibit.to
And ibit.uno
And ibit.am
And ibit.ws

Comments

Files

Brkn Love - 2020 - Brkn Love [FLAC]01 I Can’t Lie.flac 30 MB
Brkn Love - 2020 - Brkn Love [FLAC]02 I See Red.flac 24 MB
Brkn Love - 2020 - Brkn Love [FLAC]03 Shot Down.flac 20 MB
Brkn Love - 2020 - Brkn Love [FLAC]04 Flies In The Honey.flac 22 MB
Brkn Love - 2020 - Brkn Love [FLAC]05 Papercuts.flac 24 MB
Brkn Love - 2020 - Brkn Love [FLAC]06 Seventeen.flac 25 MB
Brkn Love - 2020 - Brkn Love [FLAC]07 Toxic Twin.flac 27 MB
Brkn Love - 2020 - Brkn Love [FLAC]08 Complicated.flac 22 MB
Brkn Love - 2020 - Brkn Love [FLAC]09 Oxygen.flac 22 MB
Brkn Love - 2020 - Brkn Love [FLAC]10 Don’t Panic.flac 23 MB
Brkn Love - 2020 - Brkn Love [FLAC]11 In Your Hands.flac 27 MB

Stream

Downloading Seeding Brkn Love - 2020 - Brkn Love [FLAC] from to 0 peers.
of
0 b/s / ↗0 b/s