• 0
  • 0
  • done
Sponsored Download
  • Bez.menya.WEB-DL.1080p.m4v
  • 3.4 GB
  • pk5360114
  • Bez menya WEB 1080p m4v
  • Видео HD

Description

Без меня

«У них нет ничего общего, кроме него»

image 6.805 / 10 image 5.50 / 10


image

Год выпуска : 2018

Страна : Россия

Жанр : Драма, мелодрама

Продолжительность : 1:29

Перевод : (Не требуется)

Оригинальная аудиодорожка : Есть

Cубтитры : Нет

Режиссёр : Кирилл Плетнёв

Сценарий : Дарья Грацевич

Продюсер : Рубен Дишдишян, Николай Ларионов, Андрей Епифанов

Оператор : Михаил Милашин

Композитор : Артем Михаенкин

Художник : Екатерина Залетаева, Татьяна Долматовская

Монтаж : Ира Волкова

В ролях : Полина Максимова, Любовь Аксенова, Риналь Мухаметов, Кирилл Плетнёв, Анна Каменкова, Евгения Дмитриева, Иван Титяев, Владимир Яглыч, Алексей Шевченков, Агриппина Стеклова

Сборы в России : $1 667 498

Премьера (РФ) : 11 октября 2018, «WDSSPR»

Цифровой релиз : 6 декабря 2018

Описание : Две девушки, любившие одного мужчину, после его гибели получают сообщения, автором которых может быть только он. В надежде на чудо им вдвоем предстоит отправиться в путь, который прокладывают его подсказки, чтобы открыть тайну, стоящую за загадочными посланиями.


Качество исходника : WEB-DL 1080p (NNMClub)

Качество : WEB-DL

Тип : HD (1080p)

Контейнер : M4V

Видео : H.264, 1920x806, 2.40:1, 4 538 Kbps, 25.000 fps

Аудио 1 : Русский/Оригинальная дорожка , AAC / 2.0 / 160 Kbps / 48.0 KHz

Аудио 2 : Русский/Оригинальная дорожка , AC-3 / 5.1 / 384 Kbps / 48.0 KHz


iTunes Meta Tags

Код:

Sort Name: Без меня
XID: Apple:vendor_id:2018-1049103
contentID: 1445089993
Copyright: © 2018 ООО «Марс Медиа Энтертеймент»
Screenwriters: Дарья Грацевич
Producers: Рубен Дишдишян, Николай Ларионов, Андрей Епифанов
Director: Кирилл Плетнёв
Cast: Полина Максимова, Любовь Аксенова, Риналь Мухаметов, Кирилл Плетнёв, Анна Каменкова, Евгения Дмитриева, Иван Титяев, Владимир Яглыч, Алексей Шевченков, Агриппина Стеклова
Studio: Синетрейн, Марс Медиа Энтертейнмент
Rating: 135
Long Description: Две девушки, любившие одного мужчину, после его гибели получают сообщения, автором которых может быть только он. В надежде на чудо им вдвоем предстоит отправиться в путь, который прокладывают его подсказки, чтобы открыть тайну, стоящую за загадочными посланиями.
Description: Две девушки, любившие одного мужчину, после его гибели получают сообщения, автором которых может быть только он. В надежде на чудо им вдвоем предстоит отправиться в путь, который прокладывают его подсказки, чтобы открыть тайну, стоящую за загадочными посланиями.
Release Date: 2018-10-11T08:00:00Z
Genre: Romance
Artist: Кирилл Плетнёв
Name: Без меня

MediaInfo

Код:

General
Complete name                            : /Users/imac/HandBrake/Bez.menya.WEB-DL.1080p.m4v
Format                                   : MPEG-4
Codec ID                                 : M4V  (M4V /M4A /mp42/isom)
File size                                : 3.17 GiB
Duration                                 : 1h 29mn
Overall bit rate mode                    : Variable
Overall bit rate                         : 5 087 Kbps
Movie name                               : Без меня
Performer                                : Кирилл Плетнёв
Director                                 : Кирилл Плетнёв
Actor                                    : Полина Максимова / Любовь Аксенова / Риналь Мухаметов / Кирилл Плетнёв / Анна Каменкова / Евгения Дмитриева / Иван Титяев / Владимир Яглыч / Алексей Шевченков / Агриппина Стеклова
Screenplay by                            : Дарья Грацевич
Producer                                 : Рубен Дишдишян / Николай Ларионов / Андрей Епифанов
Production studio                        : Синетрейн, Марс Медиа Энтертейнмент
Genre                                    : Romance
ContentType                              : Short Film
Description                              : Две девушки, любившие одного мужчину, после его гибели получают сообщения, автором которых может быть только он. В надежде на чудо им вдвоем предстоит отправиться в путь, который прокладывают его подсказки, чтобы открыть тайну, стоящую за загадочными посланиями.
Recorded date                            : UTC 2018-10-11 08:00:00
Encoded date                             : UTC 2019-06-08 22:55:55
Tagged date                              : UTC 2019-06-08 22:57:07
Copyright                                : © 2018 ООО «Марс Медиа Энтертеймент»
Cover                                    : Yes
Rating                                   : None
Title/Sort                               : Без меня
LongDescription                          : Две девушки, любившие одного мужчину, после его гибели получают сообщения, автором которых может быть только он. В надежде на чудо им вдвоем предстоит отправиться в путь, который прокладывают его подсказки, чтобы открыть тайну, стоящую за загадочными посланиями.
AppleStoreCatalogID                      : 1445089993
Vendor                                   : Apple:vendor_id:2018-1049103
ContentRating                            : ru-movie|16+|375|

Video #1
ID                                       : 1
Format                                   : AVC
Format/Info                              : Advanced Video Codec
Format profile                           : [email protected]
Format settings                          : CABAC / 5 Ref Frames
Format settings, CABAC                   : Yes
Format settings, ReFrames                : 5 frames
Codec ID                                 : avc1
Codec ID/Info                            : Advanced Video Coding
Duration                                 : 1h 29mn
Bit rate                                 : 4 538 Kbps
Width                                    : 1 920 pixels
Height                                   : 806 pixels
Display aspect ratio                     : 2.40:1
Frame rate mode                          : Constant
Frame rate                               : 25.000 fps
Color space                              : YUV
Chroma subsampling                       : 4:2:0
Bit depth                                : 8 bits
Scan type                                : Progressive
Bits/(Pixel*Frame)                       : 0.117
Stream size                              : 2.83 GiB (89%)
Title                                    : Main Program
Language                                 : Russian
Encoded date                             : UTC 2019-06-08 22:55:55
Tagged date                              : UTC 2019-06-08 22:56:02
Color range                              : Limited
Color primaries                          : BT.709
Transfer characteristics                 : BT.709
Matrix coefficients                      : BT.709
Menus                                    : 4,5
Codec configuration box                  : avcC

Video #2
ID                                       : 5
Format                                   : JPEG
Codec ID                                 : jpeg
Duration                                 : 1h 29mn
Bit rate mode                            : Variable
Bit rate                                 : 471 bps
Width                                    : 640 pixels
Height                                   : 268 pixels
Display aspect ratio                     : 2.40:1
Frame rate mode                          : Variable
Frame rate                               : 0.002 fps
Minimum frame rate                       : 0.001 fps
Maximum frame rate                       : 0.003 fps
Color space                              : YUV
Chroma subsampling                       : 4:2:0
Bit depth                                : 8 bits
Compression mode                         : Lossy
Bits/(Pixel*Frame)                       : 1.373
Stream size                              : 374 KiB (0%)
Title                                    : Chapter Images
Language                                 : Russian
Default                                  : No
Encoded date                             : UTC 2019-06-08 22:56:07
Tagged date                              : UTC 2019-06-08 22:56:08
Menu For                                 : 1
ColorSpace_ICC                           : RGB

Audio #1
ID                                       : 2
Format                                   : AAC LC
Format/Info                              : Advanced Audio Codec Low Complexity
Codec ID                                 : mp4a-40-2
Duration                                 : 1h 29mn
Source duration                          : 1h 29mn
Bit rate mode                            : Variable
Bit rate                                 : 158 Kbps
Maximum bit rate                         : 266 Kbps
Channel(s)                               : 2 channels
Channel layout                           : L R
Sampling rate                            : 48.0 KHz
Frame rate                               : 46.875 fps (1024 SPF)
Compression mode                         : Lossy
Stream size                              : 101 MiB (3%)
Source stream size                       : 101 MiB (3%)
Title                                    : Russian Stereo
Language                                 : Russian
Default                                  : Yes
Alternate group                          : 1
Encoded date                             : UTC 2019-06-08 22:55:55
Tagged date                              : UTC 2019-06-08 22:56:02
Fallback From                            : 3

Audio #2
ID                                       : 3
Format                                   : AC-3
Format/Info                              : Audio Coding 3
Commercial name                          : Dolby Digital
Codec ID                                 : ac-3
Duration                                 : 1h 29mn
Bit rate mode                            : Constant
Bit rate                                 : 384 Kbps
Channel(s)                               : 6 channels
Channel layout                           : L R C LFE Ls Rs
Sampling rate                            : 48.0 KHz
Frame rate                               : 31.250 fps (1536 SPF)
Bit depth                                : 16 bits
Compression mode                         : Lossy
Stream size                              : 245 MiB (8%)
Title                                    : Russian DD 5.1
Language                                 : Russian
Service kind                             : Complete Main
Default                                  : Inherited From: 2
Alternate group                          : 1
Encoded date                             : UTC 2019-06-08 22:55:55
Tagged date                              : UTC 2019-06-08 22:56:02
Fallback To                              : 2

Menu #1
00:00:00.000                             : Chapter 1
00:06:37.200                             : Chapter 2
00:13:37.680                             : Chapter 3
00:18:28.360                             : Chapter 4
00:26:45.800                             : Chapter 5
00:32:30.520                             : Chapter 6
00:38:25.200                             : Chapter 7
00:45:41.560                             : Chapter 8
00:53:00.120                             : Chapter 9
00:59:37.320                             : Chapter 10
01:04:29.480                             : Chapter 11
01:09:23.360                             : Chapter 12
01:15:38.840                             : Chapter 13

Menu #2
ID                                       : 4
Codec ID                                 : text
Duration                                 : 1h 29mn
Language                                 : Russian
Encoded date                             : UTC 2019-06-08 22:56:02
Tagged date                              : UTC 2019-06-08 22:56:02
Menu For                                 : 1
00:00:00.000                             : Chapter 1
00:06:37.200                             : Chapter 2
00:13:37.680                             : Chapter 3
00:18:28.360                             : Chapter 4
00:26:45.800                             : Chapter 5
00:32:30.520                             : Chapter 6
00:38:25.200                             : Chapter 7
00:45:41.560                             : Chapter 8
00:53:00.120                             : Chapter 9
00:59:37.320                             : Chapter 10
01:04:29.480                             : Chapter 11
01:09:23.360                             : Chapter 12
01:15:38.840                             : Chapter 13

Скриншоты

image image image image image image


imageimageimageimage
Релиз подготовлен для просмотра на Apple TV, iPad, iPhone, iPod Touch.
Для просмотра данного релиза на компьютере с ОС Windows рекомендуется использовать VLC media player


More at ibit.to
And ibit.uno
And ibit.ws

Comments

Files

Bez.menya.WEB-DL.1080p.m4v 3.4 GB

Stream

Downloading Seeding Bez.menya.WEB-DL.1080p.m4v from to 0 peers.
of
0 b/s / ↗0 b/s