• 0
  • 0
  • done
Sponsored Download
  • Bez.menya.(SD).(pk).m4v
  • 1.6 GB
  • pk5360114
  • Bez menya m4v
  • Видео

Description

Без меня

«У них нет ничего общего, кроме него»

image 6.805 / 10 image 5.50 / 10


image

Год выпуска : 2018

Страна : Россия

Жанр : Драма, мелодрама

Продолжительность : 01:29:16

Перевод : (Не требуется)

Оригинальная аудиодорожка : Есть

Cубтитры : Нет

Режиссёр : Кирилл Плетнёв

Сценарий : Дарья Грацевич

Продюсер : Рубен Дишдишян, Николай Ларионов, Андрей Епифанов

Оператор : Михаил Милашин

Композитор : Артем Михаенкин

Художник : Екатерина Залетаева, Татьяна Долматовская

Монтаж : Ира Волкова

В ролях : Полина Максимова, Любовь Аксенова, Риналь Мухаметов, Кирилл Плетнёв, Анна Каменкова, Евгения Дмитриева, Иван Титяев, Владимир Яглыч, Алексей Шевченков, Агриппина Стеклова

Сборы в России : $1 667 498

Премьера (РФ) : 11 октября 2018, «WDSSPR»

Цифровой релиз : 6 декабря 2018

Описание : Две девушки, любившие одного мужчину, после его гибели получают сообщения, автором которых может быть только он. В надежде на чудо им вдвоем предстоит отправиться в путь, который прокладывают его подсказки, чтобы открыть тайну, стоящую за загадочными посланиями.


Качество исходника : WEB-DL 1080p (NNMClub)

Качество : WEB-DLRip

Тип : SD (576p)

Контейнер : M4V

Видео : H.264, 1024x432, 2.40:1, 2 200 Kbps, 23.832 fps

Аудио : Русский/Оригинальная дорожка , AAC / 2.0 / 128 Kbps / 48.0 KHz


iTunes Meta Tags

Код:

Sort Name: Без меня
XID: Apple:vendor_id:2018-1049103
contentID: 1445089993
Copyright: © 2018 ООО «Марс Медиа Энтертеймент»
Screenwriters: Дарья Грацевич
Producers: Рубен Дишдишян, Николай Ларионов, Андрей Епифанов
Director: Кирилл Плетнёв
Cast: Полина Максимова, Любовь Аксенова, Риналь Мухаметов, Кирилл Плетнёв, Анна Каменкова, Евгения Дмитриева, Иван Титяев, Владимир Яглыч, Алексей Шевченков, Агриппина Стеклова
Studio: Синетрейн, Марс Медиа Энтертейнмент
Rating: 135
Long Description: Две девушки, любившие одного мужчину, после его гибели получают сообщения, автором которых может быть только он. В надежде на чудо им вдвоем предстоит отправиться в путь, который прокладывают его подсказки, чтобы открыть тайну, стоящую за загадочными посланиями.
Description: Две девушки, любившие одного мужчину, после его гибели получают сообщения, автором которых может быть только он. В надежде на чудо им вдвоем предстоит отправиться в путь, который прокладывают его подсказки, чтобы открыть тайну, стоящую за загадочными посланиями.
Release Date: 2018-10-11T08:00:00Z
Genre: Romance
Artist: Кирилл Плетнёв
Name: Без меня

MediaInfo

Код:

General
Complete name                            : /Users/imac/HandBrake/Bez.menya.(SD).(pk).m4v
Format                                   : MPEG-4
Codec ID                                 : M4V  (M4V /M4A /mp42/isom)
File size                                : 1.45 GiB
Duration                                 : 1h 29mn
Overall bit rate mode                    : Variable
Overall bit rate                         : 2 332 Kbps
Movie name                               : Без меня
Performer                                : Кирилл Плетнёв
Director                                 : Кирилл Плетнёв
Actor                                    : Полина Максимова / Любовь Аксенова / Риналь Мухаметов / Кирилл Плетнёв / Анна Каменкова / Евгения Дмитриева / Иван Титяев / Владимир Яглыч / Алексей Шевченков / Агриппина Стеклова
Screenplay by                            : Дарья Грацевич
Producer                                 : Рубен Дишдишян / Николай Ларионов / Андрей Епифанов
Production studio                        : Синетрейн, Марс Медиа Энтертейнмент
Genre                                    : Romance
ContentType                              : Short Film
Description                              : Две девушки, любившие одного мужчину, после его гибели получают сообщения, автором которых может быть только он. В надежде на чудо им вдвоем предстоит отправиться в путь, который прокладывают его подсказки, чтобы открыть тайну, стоящую за загадочными посланиями.
Recorded date                            : UTC 2018-10-11 08:00:00
Encoded date                             : UTC 2019-06-09 22:53:38
Tagged date                              : UTC 2019-06-09 22:54:51
Copyright                                : © 2018 ООО «Марс Медиа Энтертеймент»
Cover                                    : Yes
Rating                                   : None
Title/Sort                               : Без меня
LongDescription                          : Две девушки, любившие одного мужчину, после его гибели получают сообщения, автором которых может быть только он. В надежде на чудо им вдвоем предстоит отправиться в путь, который прокладывают его подсказки, чтобы открыть тайну, стоящую за загадочными посланиями.
AppleStoreCatalogID                      : 1445089993
Vendor                                   : Apple:vendor_id:2018-1049103
ContentRating                            : ru-movie|16+|375|

Video #1
ID                                       : 1
Format                                   : AVC
Format/Info                              : Advanced Video Codec
Format profile                           : High@L3.1
Format settings                          : CABAC / 9 Ref Frames
Format settings, CABAC                   : Yes
Format settings, ReFrames                : 9 frames
Codec ID                                 : avc1
Codec ID/Info                            : Advanced Video Coding
Duration                                 : 1h 29mn
Bit rate                                 : 2 200 Kbps
Width                                    : 1 024 pixels
Height                                   : 432 pixels
Display aspect ratio                     : 2.40:1
Frame rate mode                          : Variable
Frame rate                               : 23.832 fps
Minimum frame rate                       : 18.692 fps
Maximum frame rate                       : 23.981 fps
Color space                              : YUV
Chroma subsampling                       : 4:2:0
Bit depth                                : 8 bits
Scan type                                : Progressive
Bits/(Pixel*Frame)                       : 0.209
Stream size                              : 1.37 GiB (94%)
Title                                    : Main Program
Writing library                          : x264 core 157 r2935 545de2f
Encoding settings                        : cabac=1 / ref=9 / deblock=1:0:0 / analyse=0x3:0x113 / me=umh / subme=9 / psy=1 / psyrd=1.00:0.00 / mixedref=1 / merange=32 / chromame=1 / trellis=1 / 8x8dct=1 / cqm=0 / deadzone=21,11 / fastpskip=1 / chromaqpoffset=-2 / threads=13 / lookaheadthreads=1 / slicedthreads=0 / nr=0 / decimate=1 / interlaced=0 / bluraycompat=0 / constrainedintra=0 / bframes=6 / bpyramid=2 / badapt=2 / bbias=0 / direct=1 / weightb=1 / opengop=0 / weightp=2 / keyint=240 / keyintmin=24 / scenecut=40 / intrarefresh=0 / rclookahead=40 / rc=2pass / mbtree=1 / bitrate=2200 / ratetol=1.0 / qcomp=0.60 / qpmin=0 / qpmax=69 / qpstep=4 / cplxblur=20.0 / qblur=0.5 / ip_ratio=1.40 / aq=1:1.00
Language                                 : Russian
Encoded date                             : UTC 2019-06-09 22:53:38
Tagged date                              : UTC 2019-06-09 22:53:41
Color range                              : Limited
Color primaries                          : BT.709
Transfer characteristics                 : BT.709
Matrix coefficients                      : BT.709
Menus                                    : 3,4
Codec configuration box                  : avcC

Video #2
ID                                       : 4
Format                                   : JPEG
Codec ID                                 : jpeg
Duration                                 : 1h 29mn
Bit rate mode                            : Variable
Bit rate                                 : 475 bps
Width                                    : 640 pixels
Height                                   : 270 pixels
Display aspect ratio                     : 2.40:1
Frame rate mode                          : Variable
Frame rate                               : 0.002 fps
Minimum frame rate                       : 0.001 fps
Maximum frame rate                       : 0.003 fps
Color space                              : YUV
Chroma subsampling                       : 4:2:0
Bit depth                                : 8 bits
Compression mode                         : Lossy
Bits/(Pixel*Frame)                       : 1.374
Stream size                              : 377 KiB (0%)
Title                                    : Chapter Images
Language                                 : Russian
Default                                  : No
Encoded date                             : UTC 2019-06-09 22:53:46
Tagged date                              : UTC 2019-06-09 22:53:46
Menu For                                 : 1
ColorSpace_ICC                           : RGB

Audio
ID                                       : 2
Format                                   : AAC LC
Format/Info                              : Advanced Audio Codec Low Complexity
Codec ID                                 : mp4a-40-2
Duration                                 : 1h 29mn
Source duration                          : 1h 29mn
Bit rate mode                            : Variable
Bit rate                                 : 126 Kbps
Maximum bit rate                         : 217 Kbps
Channel(s)                               : 2 channels
Channel layout                           : L R
Sampling rate                            : 48.0 KHz
Frame rate                               : 46.875 fps (1024 SPF)
Compression mode                         : Lossy
Stream size                              : 80.2 MiB (5%)
Source stream size                       : 80.2 MiB (5%)
Title                                    : Russian Stereo
Language                                 : Russian
Default                                  : Yes
Alternate group                          : 1
Encoded date                             : UTC 2019-06-09 22:53:38
Tagged date                              : UTC 2019-06-09 22:53:43

Menu #1
00:00:00.000                             : Chapter 1
00:06:37.200                             : Chapter 2
00:13:37.680                             : Chapter 3
00:18:28.360                             : Chapter 4
00:26:45.800                             : Chapter 5
00:32:30.520                             : Chapter 6
00:38:25.200                             : Chapter 7
00:45:41.560                             : Chapter 8
00:53:00.120                             : Chapter 9
00:59:37.320                             : Chapter 10
01:04:29.480                             : Chapter 11
01:09:23.360                             : Chapter 12
01:15:38.840                             : Chapter 13

Menu #2
ID                                       : 3
Codec ID                                 : text
Duration                                 : 1h 29mn
Language                                 : Russian
Encoded date                             : UTC 2019-06-09 22:53:43
Tagged date                              : UTC 2019-06-09 22:53:43
Menu For                                 : 1
00:00:00.000                             : Chapter 1
00:06:37.200                             : Chapter 2
00:13:37.680                             : Chapter 3
00:18:28.360                             : Chapter 4
00:26:45.800                             : Chapter 5
00:32:30.520                             : Chapter 6
00:38:25.200                             : Chapter 7
00:45:41.560                             : Chapter 8
00:53:00.120                             : Chapter 9
00:59:37.320                             : Chapter 10
01:04:29.480                             : Chapter 11
01:09:23.360                             : Chapter 12
01:15:38.840                             : Chapter 13

x264 лог

Код:

x264 [info]: frame I:823   Avg QP:11.75  size: 59148
x264 [info]: frame P:32552 Avg QP:14.25  size: 22286
x264 [info]: frame B:94268 Avg QP:16.34  size:  7405
x264 [info]: consecutive B-frames:  2.2%  4.4%  8.6% 49.8% 19.9% 12.6%  2.4%
x264 [info]: mb I  I16..4:  9.9% 70.7% 19.4%
x264 [info]: mb P  I16..4:  1.7%  9.6%  2.2%  P16..4: 33.4% 31.5% 17.3%  0.0%  0.0%    skip: 4.3%
x264 [info]: mb B  I16..4:  0.2%  1.1%  0.4%  B16..8: 37.3% 15.5%  4.1%  direct: 6.2%  skip:35.3%  L0:42.2% L1:43.3% BI:14.5%
x264 [info]: 8x8 transform intra:70.3% inter:65.6%
x264 [info]: coded y,uvDC,uvAC intra: 87.0% 84.3% 64.1% inter: 30.8% 23.9% 3.3%
x264 [info]: i16 v,h,dc,p: 25% 12%  7% 56%
x264 [info]: i8 v,h,dc,ddl,ddr,vr,hd,vl,hu: 12% 11%  8%  8% 12% 12% 12% 12% 14%
x264 [info]: i4 v,h,dc,ddl,ddr,vr,hd,vl,hu: 11% 10%  3%  9% 14% 14% 14% 11% 14%
x264 [info]: i8c dc,h,v,p: 44% 24% 18% 14%
x264 [info]: Weighted P-Frames: Y:4.2% UV:2.2%
x264 [info]: ref P L0: 52.0% 10.1% 16.4%  6.2%  4.9%  3.5%  3.0%  1.9%  1.8%  0.1%  0.0%
x264 [info]: ref B L0: 77.7% 10.3%  5.0%  2.4%  1.8%  1.4%  0.9%  0.4%
x264 [info]: ref B L1: 96.2%  3.8%
x264 [info]: kb/s:2198.99

Скриншоты

image image image image image image


imageimageimageimage
Релиз подготовлен для просмотра на Apple TV, iPad, iPhone, iPod Touch.
Для просмотра данного релиза на компьютере с ОС Windows рекомендуется использовать VLC media player


More at ibit.to
And ibit.uno
And ibit.ws

Comments

Files

Bez.menya.(SD).(pk).m4v 1.6 GB

Stream

Downloading Seeding Bez.menya.(SD).(pk).m4v from to 0 peers.
of
0 b/s / ↗0 b/s