• 0
  • 0
  • done
Download
  • Bacheha-Ye aseman
  • 5.6 GB
  • bloomsbury
  • Bacheha aseman
  • Арт-хаус и авторское кино (HD

Description

Дети небес / Bacheha-Ye aseman / The Children of Heaven

image

Страна : Иран

Жанр : драма, семейный

Год выпуска : 1997

Продолжительность : 01:27:57

Перевод : Профессиональный (многоголосый закадровый)

Перевод 2 : Авторский (одноголосый закадровый) П. Карцев

Субтитры : английские, русские

Оригинальная аудиодорожка : персидский

Режиссер : Маджид Маджиди / Majid Majidi

В ролях : Мухаммад Амир Наджи, Амир Фаррух Хашемян, Бахаре Седдики, Нафизе Джафар-Мухаммади, Фереште Сарабанди, Камаль Миркарими, Бехзад Рафи, Дариуш Мохтари, Мухаммад-Хасан Хусейнян, Масуме Дэйр

Описание : Безусловно, сюжет данного фильма (у маленькой Зохре однажды не стало туфелек, чтобы ходить в школу, поскольку её старший брат Али потерял их где-то, так что оба теперь вынуждены самостоятельно, не ставя в известность бедняков-родителей, выкручиваться из затруднительной ситуации, нося по очереди одни башмаки на двоих) может напомнить неореалистические ленты, в частности, «Шушá» и «Похитители велосипедов» Витторио Де Сики. Но в случае с современным иранским кинематографом нередко кажется наиболее поразительным не столько его тематическая, стилевая и эстетическая, сколько именно духовная перекличка с наследием итальянского неореализма.
Порой может создаться обманчивое впечатление, что эти деятели кино творят как первооткрыватели, лишь только взявшие в руки кино- или видеокамеру, словно заново изобретают кинематографический язык, на котором отныне учатся говорить. В их будто бы стихийно родившихся сочинениях многое представляется, на первый взгляд, простым и бесхитростным, как в жизни, без особых премудростей запечатлённым на плёнке. Но кроме уловленной атмосферы течения повседневных событий, переданной энергетики и витальной силы человеческого существования, есть в фильмах, подобных «Детям рая», как и в лучших неореалистических творениях, подлинное величие бытия, любовь к которому побеждает все драматические перипетии индивидуальных судеб и даже трагические катаклизмы истории.
(с) Сергей Кудрявцев

Рейтинг: image

Доп. информация : рип на основе этой раздачи BDRip (720p) со статусом «сомнительно», в котором «чрезмерно пережатая» оригинальная звуковая дорожка заменена на оригинальную звуковую дорожку с этой раздачи.

Видео и аудиодорожки не пережимались

image
Добавлены русские субтитры.

Сэмпл : https://disk.yandex.by/i/Yddnk9qpX65N8A

Тип релиза : BDRip 720p

Контейнер : MKV

Видео : H.264/AVC, 1280x720, 23.976fps, 8500 Kbps

Аудио : Rus, AC3, 2 ch, 48 kHz, 192 kbps |MVO|

Аудио 2 : Rus, AC3, 1 ch, 48 kHz, 96 kbps |AVO|

Аудио 3 : Persian, FLAC, 2 ch, 48 kHz, 347 kbps

Формат субтитров : softsub (SRT)

MediaInfo

`
Общее
Уникальный идентификатор : 222618398503716519903700684337126379444 (0xA77ABE75CCC64021DA71CD08A2350FB4)
Полное имя : F:Bacheha-Ye.aseman.1997.720p.BDRip.mkv
Формат : Matroska
Версия формата : Version 4
Размер файла : 5,61 Гбайт
Продолжительность : 1 ч. 27 м.
Режим общего битрейта : Переменный
Общий поток : 9134 Кбит/сек
Название фильма : Bacheha-Ye aseman [release by Bloomsbury]
Дата кодирования : UTC 2021-09-06 08:18:06
Программа кодирования : mkvmerge v55.0.0 ('Waiting For Space') 32-bit
Библиотека кодирования : libebml v1.4.2 + libmatroska v1.6.4

Видео
Идентификатор : 1
Формат : AVC
Формат/Информация : Advanced Video Codec
Профиль формата : [email protected]
Настройки формата : CABAC / 9 Ref Frames
Параметр CABAC формата : Да
Параметр RefFrames формата : 9 кадров
Идентификатор кодека : VMPEG4/ISO/AVC
Продолжительность : 1 ч. 27 м.
Битрейт : 8500 Кбит/сек
Ширина : 1280 пикселей
Высота : 720 пикселей
Соотношение сторон : 16:9
Режим частоты кадров : Постоянный
Частота кадров : 23,976 (24000/1001) кадра/сек
Цветовое пространство : YUV
Субдискретизация насыщенности : 4:2:0
Битовая глубина : 8 бит
Тип развёртки : Прогрессивная
Бит/(Пиксели*Кадры) : 0.385
Размер потока : 5,22 Гбайт (93%)
Заголовок : Bacheha-Ye aseman
Библиотека кодирования : x264 core 129 r2245+704+36 8e61944 tMod+MixAQ [[email protected]:2:0 X86]
Настройки программы : cabac=1 / ref=9 / deblock=1:-3:-3 / analyse=0x3:0x133 / me=tesa / subme=11 / psy=1 / fade
compensate=0.00 / psyrd=1.00:0.10 / mixedref=1 / merange=32 / chromame=1 / trellis=2 / 8x8dct=1 / cqm=0 / deadzone=21,11 / fastpskip=0 / chromaqpoffset=-3 / threads=12 / lookaheadthreads=2 / slicedthreads=0 / nr=0 / decimate=0 / interlaced=0 / bluraycompat=0 / constrainedintra=0 / fgo=0 / bframes=10 / bpyramid=2 / badapt=2 / bbias=0 / direct=3 / weightb=1 / opengop=0 / weightp=2 / keyint=250 / keyintmin=23 / scenecut=40 / intrarefresh=0 / rclookahead=80 / rc=2pass / mbtree=1 / bitrate=8500 / ratetol=1.0 / qcomp=0.70 / qpmin=0 / qpmax=69 / qpstep=4 / cplxblur=20.0 / qblur=0.5 / ip_ratio=1.40 / aq=1 / aq-strength=0.60 / aq-sensitivity=10.00 / aq-ifactor=1.00 / aq-pfactor=1.00 / aq-bfactor=1.00 / aq2=0 / zones=722,3190,b=1.3/34449,34987,b=1.45
Язык : Persian
Default : Да
Forced : Нет

Аудио #1
Идентификатор : 2
Формат : AC-3
Формат/Информация : Audio Coding 3
Коммерческое название : Dolby Digital
Идентификатор кодека : A_AC3
Продолжительность : 1 ч. 27 м.
Вид битрейта : Постоянный
Битрейт : 192 Кбит/сек
Каналы : 2 канала
ChannelLayout : L R
Частота : 48,0 КГц
Частота кадров : 31,250 кадров/сек (1536 SPF)
Битовая глубина : 16 бит
Метод сжатия : С потерями
Размер потока : 121 Мбайт (2%)
Заголовок : MVO
Язык : Russian
ServiceKind/String : Complete Main
Default : Да
Forced : Нет

Аудио #2
Идентификатор : 3
Формат : AC-3
Формат/Информация : Audio Coding 3
Коммерческое название : Dolby Digital
Идентификатор кодека : A_AC3
Продолжительность : 1 ч. 27 м.
Вид битрейта : Постоянный
Битрейт : 96,0 Кбит/сек
Каналы : 1 канал
ChannelLayout : C
Частота : 48,0 КГц
Частота кадров : 31,250 кадров/сек (1536 SPF)
Битовая глубина : 16 бит
Метод сжатия : С потерями
Размер потока : 60,3 Мбайт (1%)
Заголовок : AVO (П. Карцев)
Язык : Russian
ServiceKind/String : Complete Main
Default : Нет
Forced : Нет

Аудио #3
Идентификатор : 4
Формат : FLAC
Формат/Информация : Free Lossless Audio Codec
Идентификатор кодека : A_FLAC
Продолжительность : 1 ч. 27 м.
Вид битрейта : Переменный
Битрейт : 347 Кбит/сек
Каналы : 2 канала
ChannelLayout : L R
Частота : 48,0 КГц
Частота кадров : 11,719 кадров/сек (4096 SPF)
Битовая глубина : 16 бит
Метод сжатия : Без потерь
Размер потока : 218 Мбайт (4%)
Библиотека кодирования : libFLAC 1.2.1 (UTC 2007-09-17)
Язык : Persian
Default : Нет
Forced : Нет

Текст #1
Идентификатор : 5
Формат : UTF-8
Идентификатор кодека : S_TEXT/UTF8
Идентификатор кодека/Информация : UTF-8 Plain Text
Продолжительность : 1 ч. 27 м.
Битрейт : 31 бит/сек
ElementCount : 666
Размер потока : 20,2 Кбайт (0%)
Язык : English
Default : Нет
Forced : Нет

Текст #2
Идентификатор : 6
Формат : UTF-8
Идентификатор кодека : S_TEXT/UTF8
Идентификатор кодека/Информация : UTF-8 Plain Text
Продолжительность : 1 ч. 27 м.
Битрейт : 55 бит/сек
ElementCount : 666
Размер потока : 35,7 Кбайт (0%)
Язык : Russian
Default : Нет
Forced : Нет

Меню
00:00:00.000 : en:00:00:00.000
00:03:13.760 : en:00:03:13.760
00:08:08.054 : en:00:08:08.054
00:11:37.931 : en:00:11:37.931
00:16:07.700 : en:00:16:07.700
00:18:28.441 : en:00:18:28.441
00:20:49.048 : en:00:20:49.048
00:24:52.891 : en:00:24:52.891
00:27:06.191 : en:00:27:06.191
00:30:32.564 : en:00:30:32.564
00:33:51.963 : en:00:33:51.963
00:36:33.458 : en:00:36:33.458
00:42:12.930 : en:00:42:12.930
00:47:05.056 : en:00:47:05.056
00:53:01.578 : en:00:53:01.578
00:57:44.795 : en:00:57:44.795
01:00:55.385 : en:01:00:55.385
01:03:43.153 : en:01:03:43.153
01:07:04.854 : en:01:07:04.854
01:10:05.201 : en:01:10:05.201
01:12:42.358 : en:01:12:42.358
01:16:43.432 : en:01:16:43.432
01:22:15.297 : en:01:22:15.297
01:25:17.980 : en:01:25:17.980

`

Скриншоты

image image image image image image image image image image


More at ibit.to
And ibit.uno
And ibit.am
And ibit.ws

Comments

Files

Stream

Downloading Seeding Bacheha-Ye aseman from to 0 peers.
of
0 b/s / ↗0 b/s