• 24
  • 13
  • done
ondemand_video
  • At Home With Olaf (2020) S01 (1080p DSNY Webrip x265 10bit AAC 2.0 - HxD) [TAoE]
  • 233 MB
  • goki
  • Home Olaf 2020 S01 1080p DSNY Webrip x265 10bit AAC HxD TAoE
  • English
  • HEVC/x265
0%

At Home With Olaf: At Home With Olaf(2020)

  • Animation Family
    • Josh Gad As Olaf (voice)
    • expand_more
    English

    Description

    image

    image

    image

    At Home With Olaf (2020) IMDB

    image

    image

    image

    image

    Media Information

    General

    Unique ID                                : 94960891350798447864228787077654015247 (0x4770CD6B62A6F7BDD63FD72505A46D0F)

    Complete name                            : At Home With Olaf (2020) S01E01 Fun With Snow (1080p DSNY Webrip x265 10bit AAC 2.0 - HxD) [TAoE].mkv

    Format                                   : Matroska

    Format version                           : Version 4

    File size                                : 6.64 MiB

    Duration                                 : 41 s 334 ms

    Overall bit rate                         : 1 348 kb/s

    Movie name                               : At Home With Olaf (2020) S01E01 Fun With Snow (1080p DSNY Webrip x265 10bit AAC 2.0 - HxD) [TAoE].mkv

    Encoded date                             : UTC 2020-05-22 12:50:27

    Writing application                      : mkvmerge v44.0.0 ('Domino') 64-bit

    Writing library                          : libebml v1.3.10 + libmatroska v1.5.2

    Video

    ID                                       : 1

    Format                                   : HEVC

    Format/Info                              : High Efficiency Video Coding

    Format profile                           : Main [email protected]@Main

    Codec ID                                 : V_MPEGH/ISO/HEVC

    Duration                                 : 41 s 334 ms

    Bit rate                                 : 1 217 kb/s

    Width                                    : 1 920 pixels

    Height                                   : 804 pixels

    Display aspect ratio                     : 2.40:1

    Frame rate mode                          : Constant

    Frame rate                               : 24.000 FPS

    Color space                              : YUV

    Chroma subsampling                       : 4:2:0

    Bit depth                                : 10 bits

    Bits/(Pixel*Frame)                       : 0.033

    Stream size                              : 6.00 MiB (90%)

    Writing library                          : x265 3.3+2-gbe2d82093:[Windows][GCC 9.2.0][64 bit] 10bit

    Encoding settings                        : cpuid=1111039 / frame-threads=3 / numa-pools=8 / wpp / no-pmode / no-pme / no-psnr / no-ssim / log-level=2 / input-csp=1 / input-res=1920x804 / interlace=0 / total-frames=992 / level-idc=0 / high-tier=1 / uhd-bd=0 / ref=4 / no-allow-non-conformance / no-repeat-headers / annexb / no-aud / no-hrd / info / hash=0 / no-temporal-layers / open-gop / min-keyint=24 / keyint=250 / gop-lookahead=0 / bframes=8 / b-adapt=2 / b-pyramid / bframe-bias=0 / rc-lookahead=80 / lookahead-slices=4 / scenecut=40 / hist-scenecut=0 / radl=0 / no-splice / no-intra-refresh / ctu=64 / min-cu-size=8 / no-rect / no-amp / max-tu-size=32 / tu-inter-depth=1 / tu-intra-depth=1 / limit-tu=0 / rdoq-level=2 / dynamic-rd=0.00 / no-ssim-rd / signhide / no-tskip / nr-intra=0 / nr-inter=0 / no-constrained-intra / no-strong-intra-smoothing / max-merge=3 / limit-refs=3 / limit-modes / me=3 / subme=5 / merange=57 / temporal-mvp / no-frame-dup / no-hme / weightp / no-weightb / no-analyze-src-pics / deblock=0:0 / sao / no-sao-non-deblock / rd=4 / selective-sao=4 / no-early-skip / rskip / no-fast-intra / no-tskip-fast / no-cu-lossless / no-b-intra / no-splitrd-skip / rdpenalty=0 / psy-rd=1.30 / psy-rdoq=2.00 / no-rd-refine / no-lossless / cbqpoffs=0 / crqpoffs=0 / rc=crf / crf=22.0 / qcomp=0.60 / qpstep=4 / stats-write=0 / stats-read=0 / ipratio=1.40 / pbratio=1.30 / aq-mode=2 / aq-strength=1.10 / cutree / zone-count=0 / no-strict-cbr / qg-size=32 / no-rc-grain / qpmax=69 / qpmin=0 / no-const-vbv / sar=0 / overscan=0 / videoformat=5 / range=0 / colorprim=2 / transfer=2 / colormatrix=2 / chromaloc=0 / display-window=0 / cll=0,0 / min-luma=0 / max-luma=1023 / log2-max-poc-lsb=8 / vui-timing-info / vui-hrd-info / slices=1 / no-opt-qp-pps / no-opt-ref-list-length-pps / no-multi-pass-opt-rps / scenecut-bias=0.05 / hist-threshold=0.01 / no-opt-cu-delta-qp / no-aq-motion / no-hdr10 / no-hdr10-opt / no-dhdr10-opt / no-idr-recovery-sei / analysis-reuse-level=0 / analysis-save-reuse-level=0 / analysis-load-reuse-level=0 / scale-factor=0 / refine-intra=0 / refine-inter=0 / refine-mv=1 / refine-ctu-distortion=0 / no-limit-sao / ctu-info=0 / no-lowpass-dct / refine-analysis-type=0 / copy-pic=1 / max-ausize-factor=1.0 / no-dynamic-refine / no-single-sei / no-hevc-aq / no-svt / no-field / qp-adaptation-range=1.00 / no-scenecut-aware-qpconformance-window-offsets / right=0 / bottom=0

    Default                                  : Yes

    Forced                                   : No

    Audio

    ID                                       : 2

    Format                                   : AAC LC

    Format/Info                              : Advanced Audio Codec Low Complexity

    Codec ID                                 : A_AAC-2

    Duration                                 : 41 s 308 ms

    Bit rate                                 : 128 kb/s

    Channel(s)                               : 2 channels

    Channel layout                           : L R

    Sampling rate                            : 44.1 kHz

    Frame rate                               : 43.066 FPS (1024 SPF)

    Compression mode                         : Lossy

    Delay relative to video                  : 10 ms

    Stream size                              : 645 KiB (9%)

    Language                                 : English

    Default                                  : No

    Forced                                   : No

    Source

    1080p DSNY LAZY

    Hello everyone,

    We are TAoE, a small team of passionate encoders who love encoding. We try our best to provide you with high quality releases.

    Requests for movies and shows are welcome.

    We have a form for encode requests which can be found here

    Encode requests form

    submit your request and it will be added to our encoding request list

    You can view our encoding request list here

    Encode requests list

    When or if we encode it will depend on if we can obtain a good source to encode with and

    if one of the TAoE encoders chooses to encode it. Unfortunately we are not able to encode everything,

    new members are welcome as that helps us encode more content!

    If you would like to join TAoE submit your request here!

    TAoE member applications form

    .........................................................................................................................................


    More at ibit.to
    And ibit.uno
    And ibit.am
    And ibit.ws

    Reviews

    Comments

    Files

    At Home With Olaf (2020) S01E01 Fun With Snow (1080p DSNY Webrip x265 10bit AAC 2.0 - HxD) [TAoE].mkv 7.0 MB
    At Home With Olaf (2020) S01E02 Alone in the Forest (1080p DSNY Webrip x265 10bit AAC 2.0 - HxD) [TAoE].mkv 6.0 MB
    At Home With Olaf (2020) S01E03 Fishin' (1080p DSNY Webrip x265 10bit AAC 2.0 - HxD) [TAoE].mkv 5.0 MB
    At Home With Olaf (2020) S01E04 Leaves (1080p DSNY Webrip x265 10bit AAC 2.0 - HxD) [TAoE].mkv 6.0 MB
    At Home With Olaf (2020) S01E05 Sleep (1080p DSNY Webrip x265 10bit AAC 2.0 - HxD) [TAoE].mkv 18 MB
    At Home With Olaf (2020) S01E06 Birthday (1080p DSNY Webrip x265 10bit AAC 2.0 - HxD) [TAoE].mkv 3.0 MB
    At Home With Olaf (2020) S01E07 Pumpkin (1080p DSNY Webrip x265 10bit AAC 2.0 - HxD) [TAoE].mkv 10 MB
    At Home With Olaf (2020) S01E08 Brush (1080p DSNY Webrip x265 10bit AAC 2.0 - HxD) [TAoE].mkv 3.0 MB
    At Home With Olaf (2020) S01E09 Hide and Seek (1080p DSNY Webrip x265 10bit AAC 2.0 - HxD) [TAoE].mkv 17 MB
    At Home With Olaf (2020) S01E10 Gymnastics (1080p DSNY Webrip x265 10bit AAC 2.0 - HxD) [TAoE].mkv 5.0 MB
    At Home With Olaf (2020) S01E11 Music Time (1080p DSNY Webrip x265 10bit AAC 2.0 - HxD) [TAoE].mkv 7.0 MB
    At Home With Olaf (2020) S01E12 Sunrise (1080p DSNY Webrip x265 10bit AAC 2.0 - HxD) [TAoE].mkv 7.0 MB
    At Home With Olaf (2020) S01E13 Swing (1080p DSNY Webrip x265 10bit AAC 2.0 - HxD) [TAoE].mkv 21 MB
    At Home With Olaf (2020) S01E14 Candy (1080p DSNY Webrip x265 10bit AAC 2.0 - HxD) [TAoE].mkv 5.0 MB
    At Home With Olaf (2020) S01E15 Adventure (1080p DSNY Webrip x265 10bit AAC 2.0 - HxD) [TAoE].mkv 24 MB
    At Home With Olaf (2020) S01E16 Pink Lemonade (1080p DSNY Webrip x265 10bit AAC 2.0 - HxD) [TAoE].mkv 2.0 MB
    At Home With Olaf (2020) S01E17 Doggies (1080p DSNY Webrip x265 10bit AAC 2.0 - HxD) [TAoE].mkv 9.0 MB
    At Home With Olaf (2020) S01E18 Hobbies (1080p DSNY Webrip x265 10bit AAC 2.0 - HxD) [TAoE].mkv 7.0 MB
    At Home With Olaf (2020) S01E19 Ice (1080p DSNY Webrip x265 10bit AAC 2.0 - HxD) [TAoE].mkv 7.0 MB
    At Home With Olaf (2020) S01E20 Sounds (1080p DSNY Webrip x265 10bit AAC 2.0 - HxD) [TAoE].mkv 31 MB
    At Home With Olaf (2020) S01E21 I Am With You (1080p DSNY Webrip x265 10bit AAC 2.0 - HxD) [TAoE].mkv 33 MB

    Stream

    Downloading Seeding At Home With Olaf (2020) S01 (1080p DSNY Webrip x265 10bit AAC 2.0 - HxD) [TAoE] from to 0 peers.
    of
    0 b/s / ↗0 b/s