• 0
  • 0
  • done
Sponsored Downloadondemand_video
  • Arrow S07 (2018) WEBRip (Gears Media)
  • 7.3 GB
  • T_A_R
  • Arrow S07 2018 WEBRip Gears Media
  • Зарубежные сери
58%

Arrow: Specials(2013)

  • Crime Drama Mystery Action & Adventure
  • Spoiled billionaire playboy Oliver Queen is missing and presumed dead when his yacht is lost at sea. He returns five years later a changed man, determined to clean up the city as a hooded vigilante armed with a bow.

    expand_more

    Description

    Стрела / Arrow

    image

    Год выпуска: 2018

    Страна: США

    Жанр: фантастика, фэнтези, боевик, драма, криминал, детектив, приключения

    Продолжительность: ~ 00:43:00

    Перевод: Профессиональный (двухголосый закадровый)

    [Gears Media]

    Режиссёр: Джон Беринг, Джеймс Бэмфорд, Майкл Шульц

    В ролях: Стивен Амелл, Кэти Кэссиди, Дэвид Рэмси, Уилла Холланд, Эмели Бетт Рикардс, Пол Блекторн, Сюзанна Томпсон, Ману Беннетт, Колтон Хэйнс, Кейти Лотц, Джон Барроумен

    Описание:

    Избалованный плейбой Оливер Квин, считавшийся погибшим в кораблекрушении вместе с отцом и девушкой, на самом деле пять лет выживал на затерянном острове в Тихом океане, где пересмотрел свой взгляд на жизнь. За это время мир сильно изменился: его мать вышла замуж за нового владельца империи Квинов, младшая сестра подсела на наркотики, а бывшая девушка стала встречаться с лучшим другом Томми Мерлином. Вернувшись к цивилизации, Оливер решил избавить родной город от преступности, создав неуловимого лучника Стрелу.

    Ссылка на предыдущие и альтернативные раздачи : http://rutracker.org/forum/tracker.php?g=foreign_serials&nm=Arrow

    Сэмпл : http://multi-up.com/1214390

    Качество : WEBRip

    Формат : AVI

    Видео : XviD, 720x400 at 23.976 fps, ~1500 kbps avg

    Аудио1: Russian, MP3, 48 kHz, 2 ch, 128 kbps

    Аудио2: English, MP3, 48 kHz, 2 ch, 128 kbps

    Субтитры : нет

    Реклама : аудио (два раза, в начале и конце, по 12 сек.)

    MediaInfo

    Format : AVI
    Format/Info : Audio Video Interleave
    File size : 534 MiB
    Duration : 42 min 17 s
    Overall bit rate : 1 764 kb/s
    Writing application : Lavf57.71.100

    Video
    ID : 0
    Format : MPEG-4 Visual
    Format profile : Advanced [email protected]
    Format settings : BVOP1
    Format settings, BVOP : 1
    Format settings, QPel : No
    Format settings, GMC : No warppoints
    Format settings, Matrix : Default (H.263)
    Codec ID : XVID
    Codec ID/Hint : XviD
    Duration : 42 min 17 s
    Bit rate : 1 487 kb/s
    Width : 720 pixels
    Height : 400 pixels
    Display aspect ratio : 16:9
    Frame rate : 23.976 (24000/1001) FPS
    Color space : YUV
    Chroma subsampling : 4:2:0
    Bit depth : 8 bits
    Scan type : Progressive
    Compression mode : Lossy
    Bits/(Pixel*Frame) : 0.215
    Stream size : 450 MiB (84%)
    Writing library : XviD 67

    Audio #1
    ID : 1
    Format : MPEG Audio
    Format version : Version 1
    Format profile : Layer 3
    Format settings : Joint stereo / MS Stereo
    Codec ID : 55
    Codec ID/Hint : MP3
    Duration : 42 min 17 s
    Bit rate mode : Constant
    Bit rate : 128 kb/s
    Channel(s) : 2 channels
    Sampling rate : 48.0 kHz
    Compression mode : Lossy
    Stream size : 38.7 MiB (7%)
    Alignment : Aligned on interleaves
    Interleave, duration : 24 ms (0.58 video frame)
    Title : Gears Media
    Writing library : LAME3.100

    Audio #2
    ID : 2
    Format : MPEG Audio
    Format version : Version 1
    Format profile : Layer 3
    Format settings : Joint stereo / MS Stereo
    Codec ID : 55
    Codec ID/Hint : MP3
    Duration : 42 min 17 s
    Bit rate mode : Constant
    Bit rate : 128 kb/s
    Channel(s) : 2 channels
    Sampling rate : 48.0 kHz
    Compression mode : Lossy
    Stream size : 38.7 MiB (7%)
    Alignment : Aligned on interleaves
    Interleave, duration : 24 ms (0.58 video frame)
    Writing library : LAME

    Скриншоты

    image image image image

    Внимание! Раздача ведётся путём добавления новых серий

    Внимание! Раздача ведётся путём добавления новых серий; при каждом добавлении создаётся новый торрент. Чтобы начать докачку новой серии, пользователям необходимо сделать следующее:
    (1) остановить скачивание,
    (2) удалить старый торрент у себя из клиента (старые серии удалять не надо),
    (3) скачать новый торрент и запустить его у себя в клиенте вместо старого, при этом указать клиенту путь в старую папку куда и должно происходить скачивание новых серий.

    Ваш клиент при этом должен произвести хеширование (проверку) старой папки (если не производит сам - помогите ему сделать это), и будет докачивать только те серии которых у вас ещё нет. Старые серии при этом не удаляются, а продолжают раздаваться!

    Eсли вы уже удалили старые серии, то предотвратить повторную закачку старых серий можно, отжав галочку в соответствующих местах при запуске нового торрента. По возможности, желательно не удалять старые серии как можно дольше чтобы релизёр не столько продолжал раздавать старые серии, а смог сконцентрироваться на новых.


    More at ibit.to
    And ibit.uno
    And ibit.ws

    Reviews

    When it first hit the screen I loved this show. It's rather bare knuckle, vigilante grittiness really broke the candy covered shell, that encases so many comic book hero's. Sadly in spite of strong stories and mature characterizations for me this show slowly started a downward spiral, gradually exchanging its originality for mainstream complacency. What really ruined things, in my view, was the migration of the character from a kind of anti hero to a politician. As if this wasn't bad enough, a thread of brittle and downright tiresome, lecturing political correctness crept in too. The result was bland, predictable, opinionated and uninteresting. What a shame. 4/10 from me.

    Comments

    7 months ago

    TAR Цитата: Полный источник: не было никогда Опять ждём. В чём у вас проблема?

    6 months ago

    Для того, кто лезет с луком и стрелами на пистолеты, Стрела протянул крайне долго.

    Files

    Arrow S07E08 (2018) WEBRip (Gears Media).avi 536 MB
    Arrow S07E09 (2018) WEBRip (Gears Media).avi 536 MB
    Arrow S07E06 (2018) WEBRip (Gears Media).avi 536 MB
    Arrow S07E14 (2018) WEBRip (Gears Media).avi 535 MB
    Arrow S07E05 (2018) WEBRip (Gears Media).avi 535 MB
    Arrow S07E02 (2018) WEBRip (Gears Media).avi 535 MB
    Arrow S07E04 (2018) WEBRip (Gears Media).avi 535 MB
    Arrow S07E01 (2018) WEBRip (Gears Media).avi 534 MB
    Arrow S07E10 (2018) WEBRip (Gears Media).avi 531 MB
    Arrow S07E11 (2018) WEBRip (Gears Media).avi 528 MB
    Arrow S07E07 (2018) WEBRip (Gears Media).avi 528 MB
    Arrow S07E13 (2018) WEBRip (Gears Media).avi 521 MB
    Arrow S07E12 (2018) WEBRip (Gears Media).avi 521 MB
    Arrow S07E03 (2018) WEBRip (Gears Media).avi 518 MB

    Stream

    Downloading Seeding Arrow S07 (2018) WEBRip (Gears Media) from to 0 peers.
    of
    0 b/s / ↗0 b/s